【龙网转发】【美2022篮球迷必看热血好片】【必胜球探】【WebDL-1080p.MKV】【中字】 - 龙网BT发布页 - 梦幻天堂·龙网专属BT发布页
资源名称: 【龙网转发】【美2022篮球迷必看热血好片】【必胜球探】【WebDL-1080p.MKV】【中字】 [参与讨论]
发布者: 由 lwgod 发布于2022/06/17 17:09
发布联盟:
资源介绍:
海报
 
Image
 
译  名 必胜球探/篮儿当搏尽(港)/飞身救球/拼进NBA
片  名 Hustle
年  代 2022
国  家 美国
类  别 剧情/喜剧/运动
语  言 英语/西班牙语
字  幕 中简/中繁/英文
评  分 7.4/10 from 3,767 users
文件大小 4.66 GB
片  长 117 Min
导  演 杰里米·撒加 Jeremiah Zagar
主  演 亚当·桑德勒 Adam Sandler
     胡安乔·埃尔南戈麦斯 Juancho Hernangomez
     罗伯特·杜瓦尔 Robert Duvall
     奎恩·拉提法 Queen Latifah
     本·福斯特 Ben Foster
     贾里尔·怀特 Jaleel White
     劳尔·卡斯提洛 Raul Castillo
     里昂·贝克维思 Lyon Beckwith
     博班·马里亚诺维奇 Boban Marjanovic
     玛丽亚·博托 Maria Botto
     海蒂·加德纳 Heidi Gardner
 
简介
 
  一名不走运的篮球星探(亚当·桑德勒 饰)在国外发现一个难得的好苗子,然而对方有一段曲折的过去。在未经球队同意的情况下,他自作主张将这名天才带回美国。在重重困难下,他们只有一次机会证明自己有打进NBA的实力。
 
Video
Format                         : AVC
Format/Info                    : Advanced Video Codec
Format profile                 : High@L4
Format settings                : CABAC / 4 Ref Frames
Format settings, CABAC         : Yes
Format settings, Reference fra : 4 frames
Codec ID                       : V_MPEG4/ISO/AVC
Duration                       : 1 h 58 min
Bit rate mode                  : Variable
Bit rate                       : 4 870 kb/s
Maximum bit rate               : 20.0 Mb/s
Width                          : 1 920 pixels
Height                         : 1 080 pixels
Display aspect ratio           : 16:9
Frame rate mode                : Constant
Frame rate                     : 24.000 FPS
Color space                    : YUV
Chroma subsampling             : 4:2:0
Bit depth                      : 8 bits
Scan type                      : Progressive
Bits/(Pixel*Frame)             : 0.098
Stream size                    : 4.02 GiB (86%)
 
Audio
Format                         : E-AC-3 JOC
Format/Info                    : Enhanced AC-3 with Joint Object Coding
Commercial name                : Dolby Digital Plus with Dolby Atmos
Codec ID                       : A_EAC3
Duration                       : 1 h 58 min
Bit rate mode                  : Constant
Bit rate                       : 768 kb/s
Channel(s)                     : 6 channels
Channel layout                 : L R C LFE Ls Rs
Sampling rate                  : 48.0 kHz
Frame rate                     : 31.250 FPS (1536 SPF)
Compression mode               : Lossy
Stream size                    : 649 MiB (14%)
Service kind                   : Complete Main
Complexity index               : 16
Number of dynamic objects      : 15
Bed channel count              : 1 channel
Bed channel configuration      : LFE
 
截图
 
Image
下载资源: Download 开始下载
文件总大小: 4.7GB (种子:7,下载:6,完成:303)    
包含文件: URL 梦幻天堂·龙网(www.LWgod.org).必胜球探.篮儿当搏尽/本片海报、简介、截图等双击这里进入发布地址查看.url (198Bytes)
URL 梦幻天堂·龙网(www.LWgod.org).必胜球探.篮儿当搏尽/梦幻天堂·龙网(www.LWgod.org) 质量第一 品质保证.url (176Bytes)
UNKNOWN 梦幻天堂·龙网(www.LWgod.org).必胜球探.篮儿当搏尽/梦幻天堂·龙网(www.LWgod.org) 超多爆爽资源下载目录.rtf (2.1KB)
MKV 梦幻天堂·龙网(www.LWgod.org).必胜球探.篮儿当搏尽/梦幻天堂·龙网(www.LWgod.org).必胜球探.篮儿当搏尽.mkv (4.7GB)
UNKNOWN 梦幻天堂·龙网(www.LWgod.org).必胜球探.篮儿当搏尽/梦幻天堂·龙网最新网址 www.LWgod.org 请重新收藏.rtf (890Bytes)
Powered by BTMaster.cn Version:1.3.3