【龙网转发】【中2022票房高分必看佳作】【奇迹笨小孩】【WebDL-2160p.MKV】【国语】 - 龙网BT发布页 - 梦幻天堂·龙网专属BT发布页
资源名称: 【龙网转发】【中2022票房高分必看佳作】【奇迹笨小孩】【WebDL-2160p.MKV】【国语】 [参与讨论]
发布者: 由 lwgod 发布于2022/04/24 22:20
发布联盟:
资源介绍:
海报
 
Image
 
Image
 
译  名 奇迹·笨小孩/奇迹/奇迹年代
片  名 Nice View
年  代 2022
国  家 中国
类  别 剧情
语  言 汉语普通话
字  幕 中文硬字幕
评  分 7.4/10 from 388,051 users
文件大小 5.67 GB
片  长 106 Min
导  演 文牧野 Muye Wen
主  演 易烊千玺 Jackson Yee
     田雨 Yu Tian
     陈哈琳 Halin Chen
     齐溪 Xi Qi
     公磊 Lei Gong
     许君聪 Juncong Xu
     王宁 Ning Wang
     黄尧 Yao Huang
     巩金国 Jinguo Gong
     田壮壮 Zhuangzhuang Tian
     王传君 Chuanjun Wang
 
简介
 
  二十岁的景浩(易烊千玺 饰)独自带着年幼的妹妹来到深圳生活,兄妹俩生活温馨却拮据。为了妹妹高昂的手术费,机缘巧合之下,景浩得到一个机会,本以为美好生活即将来临,却不料遭遇重创。在时间和金钱的双重压力下,毫无退路的景浩决定孤注一掷,而他陷入困境的平凡人生,又能否燃起希望的火花?
 
  电影《奇迹》是中宣部国家电影局2021年重点电影项目,也是2021年重点建党百年献礼片,描述十八大以后新时代年轻人在深圳创业的影片。
 
Video
Format                         : HEVC
Format/Info                    : High Efficiency Video Coding
Format profile                 : Main 10 @ L5.1 @ Main
Codec ID                       : V_MPEGH/ISO/HEVC
Duration                       : 1 h 46 min
Bit rate                       : 7 270 kb/s
Width                          : 3 840 pixels
Height                         : 2 072 pixels
Display aspect ratio           : 1.85:1
Frame rate mode                : Constant
Frame rate                     : 60.000 FPS
Color space                    : YUV
Chroma subsampling             : 4:2:0
Bit depth                      : 10 bits
Bits/(Pixel*Frame)             : 0.015
Stream size                    : 5.39 GiB (95%)
Color range                    : Limited
Color primaries                : BT.709
Transfer characteristics       : BT.709
Matrix coefficients            : BT.709
 
Audio
Format                         : E-AC-3
Format/Info                    : Enhanced AC-3
Commercial name                : Dolby Digital Plus
Codec ID                       : A_EAC3
Duration                       : 1 h 46 min
Bit rate mode                  : Constant
Bit rate                       : 384 kb/s
Channel(s)                     : 6 channels
Channel layout                 : L R C LFE Ls Rs
Sampling rate                  : 48.0 kHz
Frame rate                     : 31.250 FPS (1536 SPF)
Compression mode               : Lossy
Delay relative to video        : 24 ms
Stream size                    : 291 MiB (5%)
Service kind                   : Complete Main
 
截图
 
Image
下载资源: Download 开始下载
文件总大小: 5.7GB (种子:10,下载:2,完成:478)    
包含文件: URL 梦幻天堂·龙网(www.LWgod.org).奇迹·笨小孩.奇迹年代/本片海报、简介、截图等双击这里进入发布地址查看.url (198Bytes)
URL 梦幻天堂·龙网(www.LWgod.org).奇迹·笨小孩.奇迹年代/梦幻天堂·龙网(www.LWgod.org) 质量第一 品质保证.url (176Bytes)
UNKNOWN 梦幻天堂·龙网(www.LWgod.org).奇迹·笨小孩.奇迹年代/梦幻天堂·龙网(www.LWgod.org) 超多爆爽资源下载目录.rtf (2.1KB)
MKV 梦幻天堂·龙网(www.LWgod.org).奇迹·笨小孩.奇迹年代/梦幻天堂·龙网(www.LWgod.org).奇迹·笨小孩.奇迹年代.mkv (5.7GB)
UNKNOWN 梦幻天堂·龙网(www.LWgod.org).奇迹·笨小孩.奇迹年代/梦幻天堂·龙网最新网址 www.LWgod.org 请重新收藏.rtf (890Bytes)
Powered by BTMaster.cn Version:1.3.3