【龙网转发】【中2022必看票房巨制】【长津湖之水门桥】【WebDL-2160p.MKV】【国语】 - 龙网BT发布页 - 梦幻天堂·龙网专属BT发布页
资源名称: 【龙网转发】【中2022必看票房巨制】【长津湖之水门桥】【WebDL-2160p.MKV】【国语】 [参与讨论]
发布者: 由 lwgod 发布于2022/04/30 15:12
发布联盟:
资源介绍:
海报
 
Image
 
Image
 
译  名 长津湖之水门桥/水门桥/长津湖2/三炸水门桥/长津湖(下)
片  名 Water Gate Bridge
年  代 2022
国  家 中国/中国香港
类  别 战争/历史/剧情
语  言 汉语普通话
字  幕 中英硬字幕
评  分 7.2/10 from 248,767 users
文件大小 11.2 GB
片  长 149 Min
导  演 徐克 Hark Tsui
主  演 吴京 Jing Wu
     易烊千玺 Jackson Yee
     朱亚文 Yawen Zhu
     李晨 Chen Li
     韩东君 Elvis Han
     张涵予 Hanyu Zhang
     耿乐 Le Geng
     杜淳 Chun Du
     段奕宏 Yihong Duan
     胡军 Jun Hu
     王丽坤 Likun Wang
 
简介
 
  电影《长津湖之水门桥》以抗美援朝战争第二次战役中的长津湖战役为背景,讲述了在结束了新兴里和下碣隅里的战斗之后,七连战士们又接到了更艰巨的任务……
 
Video
Format                         : HEVC
Format/Info                    : High Efficiency Video Coding
Format profile                 : Main 10 @ L5.1 @ Main
Codec ID                       : V_MPEGH/ISO/HEVC
Duration                       : 2 h 28 min
Bit rate                       : 10.6 Mb/s
Width                          : 3 840 pixels
Height                         : 1 636 pixels
Display aspect ratio           : 2.35:1
Frame rate mode                : Constant
Frame rate                     : 60.000 FPS
Color space                    : YUV
Chroma subsampling             : 4:2:0
Bit depth                      : 10 bits
Bits/(Pixel*Frame)             : 0.028
Stream size                    : 11.1 GiB (98%)
Color range                    : Limited
Color primaries                : BT.709
Transfer characteristics       : BT.709
Matrix coefficients            : BT.709
 
Audio
Format                         : E-AC-3
Format/Info                    : Enhanced AC-3
Commercial name                : Dolby Digital Plus
Codec ID                       : A_EAC3
Duration                       : 2 h 28 min
Bit rate mode                  : Constant
Bit rate                       : 192 kb/s
Channel(s)                     : 2 channels
Channel layout                 : L R
Sampling rate                  : 48.0 kHz
Frame rate                     : 31.250 FPS (1536 SPF)
Compression mode               : Lossy
Stream size                    : 205 MiB (2%)
Service kind                   : Complete Main
 
截图
 
Image
下载资源: Download 开始下载
文件总大小: 11.3GB (种子:13,下载:6,完成:949)    
包含文件: URL 梦幻天堂·龙网(www.LWgod.org).长津湖之水门桥/本片海报、简介、截图等双击这里进入发布地址查看.url (198Bytes)
URL 梦幻天堂·龙网(www.LWgod.org).长津湖之水门桥/梦幻天堂·龙网(www.LWgod.org) 质量第一 品质保证.url (176Bytes)
UNKNOWN 梦幻天堂·龙网(www.LWgod.org).长津湖之水门桥/梦幻天堂·龙网(www.LWgod.org) 超多爆爽资源下载目录.rtf (2.1KB)
MKV 梦幻天堂·龙网(www.LWgod.org).长津湖之水门桥/梦幻天堂·龙网(www.LWgod.org).长津湖之水门桥.mkv (11.3GB)
UNKNOWN 梦幻天堂·龙网(www.LWgod.org).长津湖之水门桥/梦幻天堂·龙网最新网址 www.LWgod.org 请重新收藏.rtf (890Bytes)
Powered by BTMaster.cn Version:1.3.3