【龙网转发】【2022】【爱,死亡和机器人.第三季.全9集】【WebDL-1080p.MKV】【中字】 - 龙网BT发布页 - 梦幻天堂·龙网专属BT发布页
资源名称: 【龙网转发】【2022】【爱,死亡和机器人.第三季.全9集】【WebDL-1080p.MKV】【中字】 [参与讨论]
发布者: 由 lwgod 发布于2022/05/22 22:47
发布联盟:
资源介绍:
海报
 
Image
 
译  名 爱,死亡和机器人 第三季/爱 x 死 x 机器人(台)/爱 · 死 · 机械人(港)/爱、死亡 + 机器人/爱、死亡 & 机器人
片  名 Love, Death & Robots Season 3
年  代 2022
国  家 美国
类  别 动画/科幻/奇幻/恐怖/短片
语  言 英语
字  幕 中简/中繁/英文
评  分 8.6/10 from 93668 users
文件大小 5.00 GB
单集片长 20 Min
集  数 9
导  演 帕特里克·奥斯本 Patrick Osborne
     大卫·芬奇 David Fincher
     埃米莉·迪恩 Emily Dean
     罗伯特·比斯 Robert Bisi
     安迪·里昂 Andy Lyon
     吕寅荣 Jennifer Yuh
     蒂姆·米勒 Tim Miller
     卡洛斯·史蒂文斯 Carlos Stevens
     杰罗姆·陈 Jerome Chen
     阿尔贝托·米尔戈 Alberto Mielgo
主  演 乔什·布雷纳 Josh Brener
     加里·安东尼·威廉斯 Gary Anthony Williams
     凯蒂·洛斯 Katie Lowes
     克里斯·帕内尔 Chris Parnell
     特罗伊·贝克 Troy Baker
     凯文·杰克逊 Kevin Jackson
     弗雷德·塔特西奥 Fred Tatasciore
     安东尼·马克·巴罗 Anthony Mark Barrow
     查特尔·巴里 Chantelle Barry
     派瑞·申 Parry Shen
     泰姆·温特斯 Time Winters
 
简介
 
  本季一共9集,分别为:《三个机器人:退场策略》(帕特里克·奥斯本导演)、《差劲旅行》(大卫·芬奇导演)、《机器的脉动》(艾米丽·迪恩导演)、《迷你亡灵之夜》(罗伯托·毕斯、安迪·里昂导演)、《杀戮小队开杀》(吕寅荣导演)、《虫群》(提姆·米勒导演)、《梅森的老鼠》(卡洛斯·斯蒂文斯导演)、《隧道墓穴》(杰罗姆·陈导演)、《吉巴罗》(阿尔伯托·梅尔洛导演)。
 
  艾美奖获奖动画选集《爱、死亡 & 机器人》第三部回归,由蒂姆·米勒(《死侍》《终结者:黑暗命运》)和大卫·芬奇(《心灵猎人》《曼克》)担任监制。恐怖、想象力和美在新剧集中完美融合,从揭示古老的邪恶力量到喜剧般的末日,剧集以标志性的巧思和创造性的视觉效果,为观众带来令人震惊的奇幻、恐怖和科幻短篇故事。
 
Video
Format                         : AVC
Format/Info                    : Advanced Video Codec
Format profile                 : Main @ L4
Format settings                : CABAC / 3 Ref Frames
Format settings, CABAC         : Yes
Format settings, Reference fra : 3 frames
Codec ID                       : V_MPEG4/ISO/AVC
Duration                       : 11 min 26 s
Bit rate mode                  : Variable
Bit rate                       : 3 453 kb/s
Nominal bit rate               : 3 838 kb/s
Maximum bit rate               : 6 960 kb/s
Width                          : 1 920 pixels
Height                         : 1 080 pixels
Display aspect ratio           : 16:9
Frame rate mode                : Constant
Frame rate                     : 24.000 FPS
Color space                    : YUV
Chroma subsampling             : 4:2:0
Bit depth                      : 8 bits
Scan type                      : Progressive
Bits/(Pixel*Frame)             : 0.069
Stream size                    : 283 MiB (79%)
 
Audio
Format                         : E-AC-3 JOC
Format/Info                    : Enhanced AC-3 with Joint Object Coding
Commercial name                : Dolby Digital Plus with Dolby Atmos
Codec ID                       : A_EAC3
Duration                       : 11 min 26 s
Bit rate mode                  : Constant
Bit rate                       : 768 kb/s
Channel(s)                     : 6 channels
Channel layout                 : L R C LFE Ls Rs
Sampling rate                  : 48.0 kHz
Frame rate                     : 31.250 FPS (1536 SPF)
Compression mode               : Lossy
Stream size                    : 62.9 MiB (18%)
Service kind                   : Complete Main
Complexity index               : 16
Number of dynamic objects      : 15
Bed channel count              : 1 channel
Bed channel configuration      : LFE
截图
 
Image
 
Image
下载资源: Download 开始下载
文件总大小: 5.0GB (种子:14,下载:6,完成:1309)    
包含文件: URL 梦幻天堂·龙网(www.LWgod.org).爱,死亡和机器人.第三季.全9集/本片海报、简介、截图等双击这里进入发布地址查看.url (198Bytes)
URL 梦幻天堂·龙网(www.LWgod.org).爱,死亡和机器人.第三季.全9集/梦幻天堂·龙网(www.LWgod.org) 质量第一 品质保证.url (176Bytes)
UNKNOWN 梦幻天堂·龙网(www.LWgod.org).爱,死亡和机器人.第三季.全9集/梦幻天堂·龙网(www.LWgod.org) 超多爆爽资源下载目录.rtf (2.1KB)
MKV 梦幻天堂·龙网(www.LWgod.org).爱,死亡和机器人.第三季.全9集/梦幻天堂·龙网(www.LWgod.org).爱,死亡和机器人.第三季.第1集.mkv (358.3MB)
MKV 梦幻天堂·龙网(www.LWgod.org).爱,死亡和机器人.第三季.全9集/梦幻天堂·龙网(www.LWgod.org).爱,死亡和机器人.第三季.第2集.mkv (1.1GB)
MKV 梦幻天堂·龙网(www.LWgod.org).爱,死亡和机器人.第三季.全9集/梦幻天堂·龙网(www.LWgod.org).爱,死亡和机器人.第三季.第3集.mkv (726.2MB)
MKV 梦幻天堂·龙网(www.LWgod.org).爱,死亡和机器人.第三季.全9集/梦幻天堂·龙网(www.LWgod.org).爱,死亡和机器人.第三季.第4集.mkv (278MB)
MKV 梦幻天堂·龙网(www.LWgod.org).爱,死亡和机器人.第三季.全9集/梦幻天堂·龙网(www.LWgod.org).爱,死亡和机器人.第三季.第5集.mkv (457.5MB)
MKV 梦幻天堂·龙网(www.LWgod.org).爱,死亡和机器人.第三季.全9集/梦幻天堂·龙网(www.LWgod.org).爱,死亡和机器人.第三季.第6集.mkv (405.2MB)
MKV 梦幻天堂·龙网(www.LWgod.org).爱,死亡和机器人.第三季.全9集/梦幻天堂·龙网(www.LWgod.org).爱,死亡和机器人.第三季.第7集.mkv (307.7MB)
MKV 梦幻天堂·龙网(www.LWgod.org).爱,死亡和机器人.第三季.全9集/梦幻天堂·龙网(www.LWgod.org).爱,死亡和机器人.第三季.第8集.mkv (469.2MB)
MKV 梦幻天堂·龙网(www.LWgod.org).爱,死亡和机器人.第三季.全9集/梦幻天堂·龙网(www.LWgod.org).爱,死亡和机器人.第三季.第9集.mkv (954.1MB)
UNKNOWN 梦幻天堂·龙网(www.LWgod.org).爱,死亡和机器人.第三季.全9集/梦幻天堂·龙网最新网址 www.LWgod.org 请重新收藏.rtf (890Bytes)
Powered by BTMaster.cn Version:1.3.3