【龙网转发】【中国2023票房悬疑犯罪必看】【消失的她】【WebDL-2160p.MKV】【国语】 - 龙网BT发布页 - 梦幻天堂·龙网专属BT发布页
资源名称: 【龙网转发】【中国2023票房悬疑犯罪必看】【消失的她】【WebDL-2160p.MKV】【国语】 [参与讨论]
发布者: 由 lwgod 发布于2023/11/12 19:42
发布联盟:
资源介绍:
海报
 
Image
 
Image
 
译  名 消失的她/为单身汉设下的陷阱中国版
片  名 Lost in the Stars
年  代 2023
国  家 中国
类  别 悬疑/犯罪
语  言 汉语普通话
字  幕 中英硬字幕
评  分 6.2/10 from 871,759 users
文件大小 3.43 GB
片  长 121 Min
导  演 崔睿 Rui Cui
     刘翔 Xiang Liu
主  演 朱一龙 Yilong Zhu
     倪妮 Ni Ni
     文咏珊 Janice Man
     杜江 Jiang Du
     黄子琪 Kay Huang
     柯国庆 Scotty Cox
     孟芷旭 Zhixu Meng
     张诣文含 Yiwenhan Zhang
     祝海钰 Haiyu Zhu
     于诚群 Chengqun Yu
     陈孟奇 Mengqi Chen
 
简介
 
  东南亚某国,年轻男子何非(朱一龙 饰)疯狂寻找失踪的妻子李木子,然而当地警局视若罔闻,令他出离愤怒。可就在某个清晨,何非突然发现身边躺着一名陌生女子,更令他毛骨悚然的是,女子居然声称是他的妻子李木子(文咏珊 饰)。慌乱之余,何找来华人警察郑成(杜江 饰),试图揭穿假冒者的骗局,谁知种种迹象表明,对面的陌生人真实不虚。隐隐之中,何非认为妻子被犯罪团伙绑架,他只得求助干练的金牌律师陈麦(倪妮 饰)追索真相。在调查中过程中,细微线索逐渐浮出水面,而更加黑暗的真相也开始暴露在阳光之下……
 
  本片改编自前苏联电影《为单身汉设下的陷阱》。
 
Video
Format                         : HEVC
Format/Info                    : High Efficiency Video Coding
Format profile                 : Main@L5@Main
Codec ID                       : V_MPEGH/ISO/HEVC
Duration                       : 2 h 1 min
Bit rate                       : 3 595 kb/s
Width                          : 3 840 pixels
Height                         : 1 608 pixels
Display aspect ratio           : 2.40:1
Frame rate mode                : Constant
Frame rate                     : 24.000 FPS
Color space                    : YUV
Chroma subsampling             : 4:2:0
Bit depth                      : 8 bits
Bits/(Pixel*Frame)             : 0.024
Stream size                    : 3.06 GiB (89%)
 
Audio
Format                         : E-AC-3 JOC
Format/Info                    : Enhanced AC-3 with Joint Object Coding
Commercial name                : Dolby Digital Plus with Dolby Atmos
Codec ID                       : A_EAC3
Duration                       : 2 h 1 min
Bit rate mode                  : Constant
Bit rate                       : 448 kb/s
Channel(s)                     : 6 channels
Channel layout                 : L R C LFE Ls Rs
Sampling rate                  : 48.0 kHz
Frame rate                     : 31.250 FPS (1536 SPF)
Compression mode               : Lossy
Stream size                    : 390 MiB (11%)
Language                       : Chinese
Service kind                   : Complete Main
 
截图
 
Image
下载资源: Download 开始下载
文件总大小: 3.4GB (种子:2,下载:3,完成:471)    
包含文件: URL 梦幻天堂·龙网(www.LWgod.org).消失的她.为单身汉设下的陷阱中国版/本片海报、简介、截图等双击这里进入发布地址查看.url (198Bytes)
URL 梦幻天堂·龙网(www.LWgod.org).消失的她.为单身汉设下的陷阱中国版/梦幻天堂·龙网(www.LWgod.org) 质量第一 品质保证.url (176Bytes)
UNKNOWN 梦幻天堂·龙网(www.LWgod.org).消失的她.为单身汉设下的陷阱中国版/梦幻天堂·龙网(www.LWgod.org) 超多爆爽资源下载目录.rtf (2.1KB)
MKV 梦幻天堂·龙网(www.LWgod.org).消失的她.为单身汉设下的陷阱中国版/梦幻天堂·龙网(www.LWgod.org).消失的她.为单身汉设下的陷阱中国版.mkv (3.4GB)
UNKNOWN 梦幻天堂·龙网(www.LWgod.org).消失的她.为单身汉设下的陷阱中国版/梦幻天堂·龙网最新网址 www.LWgod.org 请重新收藏.rtf (890Bytes)
Powered by BTMaster.cn Version:1.3.3