【龙网转发】【韩国2023最新期待动作犯罪大片】【毒战2】【WebDL-1080p.MKV】【中字】 - 龙网BT发布页 - 梦幻天堂·龙网专属BT发布页
资源名称: 【龙网转发】【韩国2023最新期待动作犯罪大片】【毒战2】【WebDL-1080p.MKV】【中字】 [参与讨论]
发布者: 由 lwgod 发布于2023/11/19 19:05
发布联盟:
资源介绍:
韩版毒战第一部的下载地址请点击这里
 
海报
 
Image
 
Image
 
译  名 毒战2/信徒2
片  名 Believer 2
年  代 2023
国  家 韩国
类  别 动作/犯罪/惊悚
语  言 韩语/汉语普通话
字  幕 中简/中繁
评  分 5.1/10 from 1,309 users
文件大小 4.54 GB
片  长 114 Min
导  演 白宗烈 Jong-Yeol Baek
主  演 赵震雄 Cho Jin-woong
     车胜元 Seung-won Cha
     韩孝周 Hyo-joo Han
     吴承勋 Oh Seung-Hoon
     金东英 Dong-yeong Kim
     李周英 Joo-young Lee
     赵汉哲 Han-chul Jo
     马泰 Tzi Ma
 
简介
 
  这是一部Netflix犯罪动作片,围绕仍在追捕李先生的侦探元好(赵震雄 饰)、失踪的乐(吴承勋 饰)、重新出现的布莱恩(车胜元 饰)和从中国赶来解决问题的大刀(韩孝周 饰)展开,讲述了他们之间的致命战争。
 
Video
Format                         : AVC
Format/Info                    : Advanced Video Codec
Format profile                 : Main@L4
Format settings                : CABAC / 3 Ref Frames
Format settings, CABAC         : Yes
Format settings, Reference fra : 3 frames
Codec ID                       : V_MPEG4/ISO/AVC
Duration                       : 1 h 56 min
Bit rate mode                  : Variable
Bit rate                       : 5 000 kb/s
Maximum bit rate               : 7 500 kb/s
Width                          : 1 920 pixels
Height                         : 1 080 pixels
Display aspect ratio           : 16:9
Frame rate mode                : Constant
Frame rate                     : 23.976 (24000/1001) FPS
Color space                    : YUV
Chroma subsampling             : 4:2:0
Bit depth                      : 8 bits
Scan type                      : Progressive
Bits/(Pixel*Frame)             : 0.101
Stream size                    : 3.93 GiB (86%)
 
Audio
Format                         : E-AC-3 JOC
Format/Info                    : Enhanced AC-3 with Joint Object Coding
Commercial name                : Dolby Digital Plus with Dolby Atmos
Codec ID                       : A_EAC3
Duration                       : 1 h 54 min
Bit rate mode                  : Constant
Bit rate                       : 768 kb/s
Channel(s)                     : 6 channels
Channel layout                 : L R C LFE Ls Rs
Sampling rate                  : 48.0 kHz
Frame rate                     : 31.250 FPS (1536 SPF)
Bit depth                      : 32 bits
Compression mode               : Lossy
Stream size                    : 628 MiB (13%)
Language                       : Korean
Service kind                   : Complete Main
 
截图
 
Image
下载资源: Download 开始下载
文件总大小: 4.5GB (种子:2,下载:0,完成:843)    
包含文件: URL 梦幻天堂·龙网(www.LWgod.org).毒战2.信徒2/本片海报、简介、截图等双击这里进入发布地址查看.url (198Bytes)
URL 梦幻天堂·龙网(www.LWgod.org).毒战2.信徒2/梦幻天堂·龙网(www.LWgod.org) 质量第一 品质保证.url (176Bytes)
UNKNOWN 梦幻天堂·龙网(www.LWgod.org).毒战2.信徒2/梦幻天堂·龙网(www.LWgod.org) 超多爆爽资源下载目录.rtf (2.1KB)
MKV 梦幻天堂·龙网(www.LWgod.org).毒战2.信徒2/梦幻天堂·龙网(www.LWgod.org).毒战2.信徒2.mkv (4.5GB)
UNKNOWN 梦幻天堂·龙网(www.LWgod.org).毒战2.信徒2/梦幻天堂·龙网最新网址 www.LWgod.org 请重新收藏.rtf (890Bytes)
UNKNOWN 梦幻天堂·龙网(www.LWgod.org).毒战2.信徒2/龙网种子即将停止外转,下载龙网资源请至龙网原创区.rtf (807Bytes)
Powered by BTMaster.cn Version:1.3.3