【龙网转发】【美2022炸裂视效必看】【史前星球.全5集】【WebDL-1080p.MKV】【中字】 - 龙网BT发布页 - 梦幻天堂·龙网专属BT发布页
资源名称: 【龙网转发】【美2022炸裂视效必看】【史前星球.全5集】【WebDL-1080p.MKV】【中字】 [参与讨论]
发布者: 由 lwgod 发布于2022/05/29 23:40
发布联盟:
资源介绍:
海报
 
Image
 
Image
 
译  名 史前星球
片  名 Prehistoric Planet
年  代 2022
国  家 美国/英国
类  别 纪录片
语  言 英语
字  幕 中简/中繁/英文
评  分 9.5/10 from 5,858 users
文件大小 15.2 GB
单集片长 45 Min
集  数 5
导  演 亚当·瓦德兹 Adam Valdez
     安德鲁·R·琼斯 Andrew R. Jones
主  演 大卫·爱登堡 David Attenborough
 
简介
 
  该剧结合了野生动物电影制作技术和最新的古生物学知识,以独一无二的方式揭开古代地球壮观的动物栖息地的面纱。该剧集由BBC Studios自然历史部门的知名团队支持下制作。《史前星球》以白垩纪时代的环境为背景,描绘了海岸、沙漠、河流、冰雪世界和森林的场景,展示了鲜为人知且令人惊讶的恐龙生活。
 
Video
Format                         : AVC
Format/Info                    : Advanced Video Codec
Format profile                 : High@L4
Format settings                : CABAC / 4 Ref Frames
Format settings, CABAC         : Yes
Format settings, Reference fra : 4 frames
Codec ID                       : V_MPEG4/ISO/AVC
Duration                       : 42 min 3 s
Bit rate                       : 9 764 kb/s
Width                          : 1 920 pixels
Height                         : 1 080 pixels
Display aspect ratio           : 16:9
Frame rate mode                : Constant
Frame rate                     : 23.976 (24000/1001) FPS
Color space                    : YUV
Chroma subsampling             : 4:2:0
Bit depth                      : 8 bits
Scan type                      : Progressive
Bits/(Pixel*Frame)             : 0.196
Stream size                    : 2.87 GiB (92%)
Color range                    : Limited
Color primaries                : BT.709
Transfer characteristics       : BT.709
Matrix coefficients            : BT.709
 
Audio
Format                         : E-AC-3 JOC
Format/Info                    : Enhanced AC-3 with Joint Object Coding
Commercial name                : Dolby Digital Plus with Dolby Atmos
Codec ID                       : A_EAC3
Duration                       : 42 min 3 s
Bit rate mode                  : Constant
Bit rate                       : 768 kb/s
Channel(s)                     : 6 channels
Channel layout                 : L R C LFE Ls Rs
Sampling rate                  : 48.0 kHz
Frame rate                     : 31.250 FPS (1536 SPF)
Compression mode               : Lossy
Stream size                    : 231 MiB (7%)
Service kind                   : Complete Main
Complexity index               : 16
Number of dynamic objects      : 15
Bed channel count              : 1 channel
Bed channel configuration      : LFE
 
截图
 
Image
下载资源: Download 开始下载
文件总大小: 15.3GB (种子:27,下载:19,完成:1168)    
包含文件: URL 梦幻天堂·龙网(www.LWgod.org).史前星球.全5集/本片海报、简介、截图等双击这里进入发布地址查看.url (198Bytes)
URL 梦幻天堂·龙网(www.LWgod.org).史前星球.全5集/梦幻天堂·龙网(www.LWgod.org) 质量第一 品质保证.url (176Bytes)
UNKNOWN 梦幻天堂·龙网(www.LWgod.org).史前星球.全5集/梦幻天堂·龙网(www.LWgod.org) 超多爆爽资源下载目录.rtf (2.1KB)
MKV 梦幻天堂·龙网(www.LWgod.org).史前星球.全5集/梦幻天堂·龙网(www.LWgod.org).史前星球.第1集.mkv (3.1GB)
MKV 梦幻天堂·龙网(www.LWgod.org).史前星球.全5集/梦幻天堂·龙网(www.LWgod.org).史前星球.第2集.mkv (3.1GB)
MKV 梦幻天堂·龙网(www.LWgod.org).史前星球.全5集/梦幻天堂·龙网(www.LWgod.org).史前星球.第3集.mkv (2.9GB)
MKV 梦幻天堂·龙网(www.LWgod.org).史前星球.全5集/梦幻天堂·龙网(www.LWgod.org).史前星球.第4集.mkv (3.1GB)
MKV 梦幻天堂·龙网(www.LWgod.org).史前星球.全5集/梦幻天堂·龙网(www.LWgod.org).史前星球.第5集.mkv (3.1GB)
UNKNOWN 梦幻天堂·龙网(www.LWgod.org).史前星球.全5集/梦幻天堂·龙网最新网址 www.LWgod.org 请重新收藏.rtf (890Bytes)
Powered by BTMaster.cn Version:1.3.3