【龙网转发】【超大尺度限制级】【一个女孩和一个男孩】【WebDL-1080p.MKV】【中字】 - 龙网BT发布页 - 梦幻天堂·龙网专属BT发布页
资源名称: 【龙网转发】【超大尺度限制级】【一个女孩和一个男孩】【WebDL-1080p.MKV】【中字】 [参与讨论]
发布者: 由 lwgod 发布于2023/11/28 16:01
发布联盟:
资源介绍:
海报
 
Image
 
Image
 
译  名 一个女孩和一个男孩
片  名 A Girl and A Guy
年  代 2021
国  家 菲律宾
类  别 喜剧/爱情
语  言 他加禄语/英语
字  幕 中简/中繁
评  分 5.2/10 from 646 users
文件大小 3.56 GB
片  长 130 Min
导  演 埃里克·马蒂 Erik Matti
主  演 Rosh Barman
     Pau Benitez
     Yvanne Evangelista
     Rob Gomez
     Sarah Holmes
     Alexa Miro
     Candice Ramos
     Juan Carlo Tarobal
 
简介
 
  《一个女孩和一个男人》是一个现代故事,讲述了年轻人在当今社会中艰难的人际关系、联系和亲密关系世界中的故事。这部电影讲述了一个女孩的故事,一个男孩的故事,以及一个女孩和一个男孩之间的故事。
 
Video
Format                         : AVC
Format/Info                    : Advanced Video Codec
Format profile                 : High@L4
Format settings                : CABAC / 4 Ref Frames
Format settings, CABAC         : Yes
Format settings, Reference fra : 4 frames
Codec ID                       : V_MPEG4/ISO/AVC
Duration                       : 2 h 10 min
Bit rate mode                  : Variable
Bit rate                       : 3 254 kb/s
Maximum bit rate               : 20.0 Mb/s
Width                          : 1 920 pixels
Height                         : 1 080 pixels
Display aspect ratio           : 16:9
Frame rate mode                : Constant
Frame rate                     : 23.976 (24000/1001) FPS
Color space                    : YUV
Chroma subsampling             : 4:2:0
Bit depth                      : 8 bits
Scan type                      : Progressive
Bits/(Pixel*Frame)             : 0.065
Stream size                    : 2.97 GiB (83%)
 
Audio
Format                         : E-AC-3
Format/Info                    : Enhanced AC-3
Commercial name                : Dolby Digital Plus
Codec ID                       : A_EAC3
Duration                       : 2 h 10 min
Bit rate mode                  : Constant
Bit rate                       : 640 kb/s
Channel(s)                     : 6 channels
Channel layout                 : L R C LFE Ls Rs
Sampling rate                  : 48.0 kHz
Frame rate                     : 31.250 FPS (1536 SPF)
Compression mode               : Lossy
Stream size                    : 598 MiB (16%)
Service kind                   : Complete Main
 
截图
 
Image
 
Image
 
Image
 
Image
 
Image
下载资源: Download 开始下载
文件总大小: 3.6GB (种子:4,下载:7,完成:1612)    
包含文件: URL 梦幻天堂·龙网(www.LWgod.org).一个女孩和一个男孩/本片海报、简介、截图等双击这里进入发布地址查看.url (198Bytes)
URL 梦幻天堂·龙网(www.LWgod.org).一个女孩和一个男孩/梦幻天堂·龙网(www.LWgod.org) 质量第一 品质保证.url (176Bytes)
UNKNOWN 梦幻天堂·龙网(www.LWgod.org).一个女孩和一个男孩/梦幻天堂·龙网(www.LWgod.org) 超多爆爽资源下载目录.rtf (2.1KB)
MKV 梦幻天堂·龙网(www.LWgod.org).一个女孩和一个男孩/梦幻天堂·龙网(www.LWgod.org).一个女孩和一个男孩.mkv (3.6GB)
UNKNOWN 梦幻天堂·龙网(www.LWgod.org).一个女孩和一个男孩/梦幻天堂·龙网最新网址 www.LWgod.org 请重新收藏.rtf (890Bytes)
UNKNOWN 梦幻天堂·龙网(www.LWgod.org).一个女孩和一个男孩/龙网种子即将停止外转,下载龙网资源请至龙网原创区.rtf (807Bytes)
Powered by BTMaster.cn Version:1.3.3