【龙网转发】【中国2023章宇最新悬疑犯罪】【沉默笔录】【WebDL-2160p.MKV】【国语】 - 龙网BT发布页 - 梦幻天堂·龙网专属BT发布页
资源名称: 【龙网转发】【中国2023章宇最新悬疑犯罪】【沉默笔录】【WebDL-2160p.MKV】【国语】 [参与讨论]
发布者: 由 lwgod 发布于2024/01/09 17:08
发布联盟:
资源介绍:
海报
 
Image
 
Image
 
译  名 沉默笔录/野犬笔录
片  名 Record Without Words
年  代 2023
国  家 中国
类  别 剧情/悬疑/犯罪
语  言 汉语普通话/贵州方言
字  幕 中英硬字幕
评  分 6.8/10 from 6,351 users
文件大小 2.94 GB
片  长 91 Min
导  演 郝飞环 Feihuan Hao
主  演 章宇 Yu Zhang
     马吟吟 Yinyin Ma
     孙敏 Min Sun
     楚布花羯 ChoBu HuaJe
     谭天 Tian Tan
     钟波 Bo Zhong
     董凡 Fan Dong
 
简介
 
  平西镇位于西南某地,90年代乡镇治安由联防队维护,联防队长李立忠(章宇 饰)的父亲意外死亡,与此同时镇里发生诡异的连环杀狗案,李立忠带领队员通过蹩脚的探案手法进行调查,通过一系列荒诞行动,李立忠发现杀狗案竟与父亲的死亡有千丝万缕的关系。在那个野蛮生长的时代下,面对真相的李立忠只能以沉默作答。
 
Video
Format                         : HEVC
Format/Info                    : High Efficiency Video Coding
Format profile                 : Main @ L5.1 @ Main
Codec ID                       : V_MPEGH/ISO/HEVC
Duration                       : 1 h 31 min
Bit rate                       : 4 350 kb/s
Width                          : 3 840 pixels
Height                         : 1 712 pixels
Display aspect ratio           : 2.25:1
Frame rate mode                : Constant
Frame rate                     : 60.000 FPS
Color space                    : YUV
Chroma subsampling             : 4:2:0
Bit depth                      : 8 bits
Bits/(Pixel*Frame)             : 0.011
Stream size                    : 2.78 GiB (94%)
 
Audio
Format                         : E-AC-3
Format/Info                    : Enhanced AC-3
Commercial name                : Dolby Digital Plus
Codec ID                       : A_EAC3
Duration                       : 1 h 31 min
Bit rate mode                  : Constant
Bit rate                       : 256 kb/s
Channel(s)                     : 6 channels
Channel layout                 : L R C LFE Ls Rs
Sampling rate                  : 48.0 kHz
Frame rate                     : 31.250 FPS (1536 SPF)
Compression mode               : Lossy
Stream size                    : 168 MiB (6%)
Service kind                   : Complete Main
 
截图
 
Image
下载资源: Download 开始下载
文件总大小: 2.9GB (种子:1,下载:1,完成:175)    
包含文件: URL 梦幻天堂·龙网(www.LWgod.org).沉默笔录.野犬笔录/本片海报、简介、截图等双击这里进入发布地址查看.url (198Bytes)
URL 梦幻天堂·龙网(www.LWgod.org).沉默笔录.野犬笔录/梦幻天堂·龙网(www.LWgod.org) 质量第一 品质保证.url (176Bytes)
UNKNOWN 梦幻天堂·龙网(www.LWgod.org).沉默笔录.野犬笔录/梦幻天堂·龙网(www.LWgod.org) 超多爆爽资源下载目录.rtf (2.1KB)
MKV 梦幻天堂·龙网(www.LWgod.org).沉默笔录.野犬笔录/梦幻天堂·龙网(www.LWgod.org).沉默笔录.野犬笔录.mkv (2.9GB)
UNKNOWN 梦幻天堂·龙网(www.LWgod.org).沉默笔录.野犬笔录/梦幻天堂·龙网最新网址 www.LWgod.org 请重新收藏.rtf (890Bytes)
UNKNOWN 梦幻天堂·龙网(www.LWgod.org).沉默笔录.野犬笔录/龙网种子即将停止外转,下载龙网资源请至龙网原创区.rtf (807Bytes)
Powered by BTMaster.cn Version:1.3.3