【龙网转发】【张艺谋2022高分必看战争好片】【狙击手】【WebDL-2160p.MKV】【国语】 - 龙网BT发布页 - 梦幻天堂·龙网专属BT发布页
资源名称: 【龙网转发】【张艺谋2022高分必看战争好片】【狙击手】【WebDL-2160p.MKV】【国语】 [参与讨论]
发布者: 由 lwgod 发布于2022/04/29 21:36
发布联盟:
资源介绍:
海报
 
Image
 
Image
 
译  名 狙击手/最冷的枪
片  名 Snipers
年  代 2022
国  家 中国
类  别 剧情/历史/战争
语  言 汉语普通话/英语
字  幕 中英硬字幕
评  分 7.7/10 from 256,675 users
文件大小 4.37 GB
片  长 96 Min
导  演 张艺谋 Yimou Zhang
     张末 Mo Zhang
主  演 陈永胜 Yongsheng Chen
     章宇 Yu Zhang
     张译 Yi Zhang
     刘奕铁 Yitie Liu
     黄炎 Yan Huang
     王梓屹 Ziyi Wang
     陈铭杨 Mingyang Chen
     王乃训 Naixun Wang
     程泓鑫 Hongxin Cheng
     赵琥成 Hucheng Zhao
     李汶聪 Wencong Li
 
简介
 
  影片根据抗美援朝战争“冷枪冷炮”运动中神枪手群体事迹改编。1952年冬至1953年初,中国人民志愿军与联合国军在朝鲜战场形成僵持,双方发起了低强度的密集狙击战,史称"冷枪冷炮运动"。在连长(张译 饰)带领下的狙击五班战士枪法过人,成为敌军的心头大患,班长刘文武(章宇 饰)更成为重点狙击对象。为重创狙击五班,敌方调配精英狙击小队,配以最先进的武器装备,更迫使狙击五班战士大永(陈永胜 饰)等人为救同伴进入其设好的险境之地。但正当敌军打响自己如意算盘之时,他们未料到,被他们当作诱饵的侦察兵亮亮(刘奕铁 饰)身上其实隐藏着更大的秘密……
 
Video
Format                         : HEVC
Format/Info                    : High Efficiency Video Coding
Format profile                 : Main 10 @ L5.1 @ Main
Codec ID                       : V_MPEGH/ISO/HEVC
Duration                       : 1 h 35 min
Bit rate                       : 6 264 kb/s
Width                          : 3 840 pixels
Height                         : 1 606 pixels
Display aspect ratio           : 2.40:1
Frame rate mode                : Constant
Frame rate                     : 60.000 FPS
Color space                    : YUV
Chroma subsampling             : 4:2:0
Bit depth                      : 10 bits
Bits/(Pixel*Frame)             : 0.017
Stream size                    : 4.20 GiB (96%)
Color range                    : Limited
Color primaries                : BT.709
Transfer characteristics       : BT.709
Matrix coefficients            : BT.709
 
Audio
Format                         : E-AC-3
Format/Info                    : Enhanced AC-3
Commercial name                : Dolby Digital Plus
Codec ID                       : A_EAC3
Duration                       : 1 h 35 min
Bit rate mode                  : Constant
Bit rate                       : 256 kb/s
Channel(s)                     : 6 channels
Channel layout                 : L R C LFE Ls Rs
Sampling rate                  : 48.0 kHz
Frame rate                     : 31.250 FPS (1536 SPF)
Compression mode               : Lossy
Stream size                    : 176 MiB (4%)
Service kind                   : Complete Main
 
截图
 
Image
下载资源: Download 开始下载
文件总大小: 4.4GB (种子:10,下载:10,完成:814)    
包含文件: URL 梦幻天堂·龙网(www.LWgod.org).狙击手.最冷的枪.张艺谋2022新片/本片海报、简介、截图等双击这里进入发布地址查看.url (198Bytes)
URL 梦幻天堂·龙网(www.LWgod.org).狙击手.最冷的枪.张艺谋2022新片/梦幻天堂·龙网(www.LWgod.org) 质量第一 品质保证.url (176Bytes)
UNKNOWN 梦幻天堂·龙网(www.LWgod.org).狙击手.最冷的枪.张艺谋2022新片/梦幻天堂·龙网(www.LWgod.org) 超多爆爽资源下载目录.rtf (2.1KB)
MKV 梦幻天堂·龙网(www.LWgod.org).狙击手.最冷的枪.张艺谋2022新片/梦幻天堂·龙网(www.LWgod.org).狙击手.最冷的枪.张艺谋2022新片.mkv (4.4GB)
UNKNOWN 梦幻天堂·龙网(www.LWgod.org).狙击手.最冷的枪.张艺谋2022新片/梦幻天堂·龙网最新网址 www.LWgod.org 请重新收藏.rtf (890Bytes)
Powered by BTMaster.cn Version:1.3.3