【龙网转发】【中国2022好评热门武侠动作】【目中无人】【WebDL-1080p.MKV】【国语】 - 龙网BT发布页 - 梦幻天堂·龙网专属BT发布页
资源名称: 【龙网转发】【中国2022好评热门武侠动作】【目中无人】【WebDL-1080p.MKV】【国语】 [参与讨论]
发布者: 由 lwgod 发布于2022/06/11 20:24
发布联盟:
资源介绍:
海报
 
Image
 
片  名 目中无人/盲侠
年  代 2022
国  家 中国
类  别 动作/武侠
语  言 汉语普通话
字  幕 中文硬字幕
评  分 7.0/10 from 8,967 users
文件大小 1.30 GB
片  长 74 Min
导  演 杨秉佳 Bingjia Yang
主  演 谢苗 Miu Tse
     高维蔓 Weiman Gao
     向皓 Hao Xiang
     刘奔 Ben Liu
     张荻 Di Zhang
     张皓森 Haosen Zhang
     高毅 Yi Gao
     康轩 Xuan Kang
     侯骏桀 Junjie Hou
     尹箭 Jian Yin
     甘书杰 Shujie Gan
 
简介
 
  电影讲述身怀绝技的盲眼“捉刀人”成瞎子,遇上惨遭灭门和凌辱的酒家女倪燕,原本不想插手的他逐渐被卷入一场势力庞大的暗黑纷争中,成瞎子开始踏上了寻求公道的复仇之路,他的真实身份也随之揭晓。
 
Video
Format                         : HEVC
Format/Info                    : High Efficiency Video Coding
Format profile                 : Main@L4@Main
Codec ID                       : V_MPEGH/ISO/HEVC
Duration                       : 1 h 13 min
Bit rate                       : 2 148 kb/s
Width                          : 1 920 pixels
Height                         : 800 pixels
Display aspect ratio           : 2.40:1
Frame rate mode                : Constant
Frame rate                     : 24.000 FPS
Color space                    : YUV
Chroma subsampling             : 4:2:0
Bit depth                      : 8 bits
Bits/(Pixel*Frame)             : 0.058
Stream size                    : 1.11 GiB (85%)
 
Audio
Format                         : E-AC-3
Format/Info                    : Enhanced AC-3
Commercial name                : Dolby Digital Plus
Codec ID                       : A_EAC3
Duration                       : 1 h 13 min
Bit rate mode                  : Constant
Bit rate                       : 384 kb/s
Channel(s)                     : 6 channels
Channel layout                 : L R C LFE Ls Rs
Sampling rate                  : 48.0 kHz
Frame rate                     : 31.250 FPS (1536 SPF)
Compression mode               : Lossy
Stream size                    : 203 MiB (15%)
Service kind                   : Complete Main
 
截图
 
Image
下载资源: Download 开始下载
文件总大小: 1.3GB (种子:31,下载:11,完成:1540)    
包含文件: URL 梦幻天堂·龙网(www.LWgod.org).目中无人.盲侠/本片海报、简介、截图等双击这里进入发布地址查看.url (198Bytes)
URL 梦幻天堂·龙网(www.LWgod.org).目中无人.盲侠/梦幻天堂·龙网(www.LWgod.org) 质量第一 品质保证.url (176Bytes)
UNKNOWN 梦幻天堂·龙网(www.LWgod.org).目中无人.盲侠/梦幻天堂·龙网(www.LWgod.org) 超多爆爽资源下载目录.rtf (2.1KB)
MKV 梦幻天堂·龙网(www.LWgod.org).目中无人.盲侠/梦幻天堂·龙网(www.LWgod.org).目中无人.盲侠.mkv (1.3GB)
UNKNOWN 梦幻天堂·龙网(www.LWgod.org).目中无人.盲侠/梦幻天堂·龙网最新网址 www.LWgod.org 请重新收藏.rtf (890Bytes)
Powered by BTMaster.cn Version:1.3.3