【龙网转发】【张译潘斌龙2023新感人剧情】【无价之宝】【WebDL-2160p.MKV】【国语】 - 龙网BT发布页 - 梦幻天堂·龙网专属BT发布页
资源名称: 【龙网转发】【张译潘斌龙2023新感人剧情】【无价之宝】【WebDL-2160p.MKV】【国语】 [参与讨论]
发布者: 由 lwgod 发布于2023/12/29 20:35
发布联盟:
资源介绍:
海报
 
Image
 
Image
 
译  名 无价之宝/五金家族/盗时光/中国版担保
片  名 Be My Family
年  代 2023
国  家 中国
类  别 剧情/喜剧/家庭
语  言 汉语普通话
字  幕 中英硬字幕
评  分 6.5/10 from 34,697 users
文件大小 4.32 GB
片  长 132 Min
导  演 张大鹏 Dapeng Zhang
主  演 张译 Yi Zhang
     潘斌龙 Binlong Pan
     周依然 Yiran Zhou
     程曦 Xi Cheng
     袁晓旭 Xiaoxu Yuan
     黄婧仪 Jingyi Huang
     郝蕾 Lei Hao
     张国强 Guoqiang Zhang
     方青卓 Qingzhuo Fang
     张懿曼 Yiman Zhang
     何廖侣匀 Luyun Heliao
 
简介
 
  “石头”石振邦(张译 饰)和杨武(潘斌龙 饰)这对落魄兄弟经营五金店艰难维生,为追讨欠款,他们不得不暂时照看欠债人的孩子芊芊。两人在与芊芊的相处中从最初嫌弃“拖油瓶”竟潜移默化地转变成千方百计“为女儿战斗”,生活粗放的他们内心也变得越来越柔软……
 
Video
Format                         : HEVC
Format/Info                    : High Efficiency Video Coding
Format profile                 : Main @ L5.1 @ Main
Codec ID                       : V_MPEGH/ISO/HEVC
Duration                       : 2 h 11 min
Bit rate                       : 4 437 kb/s
Width                          : 3 840 pixels
Height                         : 1 608 pixels
Display aspect ratio           : 2.40:1
Frame rate mode                : Constant
Frame rate                     : 60.000 FPS
Color space                    : YUV
Chroma subsampling             : 4:2:0
Bit depth                      : 8 bits
Bits/(Pixel*Frame)             : 0.012
Stream size                    : 4.09 GiB (94%)
 
Audio
Format                         : E-AC-3
Format/Info                    : Enhanced AC-3
Commercial name                : Dolby Digital Plus
Codec ID                       : A_EAC3
Duration                       : 2 h 11 min
Bit rate mode                  : Constant
Bit rate                       : 256 kb/s
Channel(s)                     : 6 channels
Channel layout                 : L R C LFE Ls Rs
Sampling rate                  : 48.0 kHz
Frame rate                     : 31.250 FPS (1536 SPF)
Compression mode               : Lossy
Stream size                    : 242 MiB (5%)
Service kind                   : Complete Main
 
截图
 
Image
下载资源: Download 开始下载
文件总大小: 4.3GB (种子:3,下载:5,完成:214)    
包含文件: URL 梦幻天堂·龙网(www.LWgod.org).无价之宝.五金家族.中国版担保/本片海报、简介、截图等双击这里进入发布地址查看.url (198Bytes)
URL 梦幻天堂·龙网(www.LWgod.org).无价之宝.五金家族.中国版担保/梦幻天堂·龙网(www.LWgod.org) 质量第一 品质保证.url (176Bytes)
UNKNOWN 梦幻天堂·龙网(www.LWgod.org).无价之宝.五金家族.中国版担保/梦幻天堂·龙网(www.LWgod.org) 超多爆爽资源下载目录.rtf (2.1KB)
MKV 梦幻天堂·龙网(www.LWgod.org).无价之宝.五金家族.中国版担保/梦幻天堂·龙网(www.LWgod.org).无价之宝.五金家族.中国版担保.mkv (4.3GB)
UNKNOWN 梦幻天堂·龙网(www.LWgod.org).无价之宝.五金家族.中国版担保/梦幻天堂·龙网最新网址 www.LWgod.org 请重新收藏.rtf (890Bytes)
UNKNOWN 梦幻天堂·龙网(www.LWgod.org).无价之宝.五金家族.中国版担保/龙网种子即将停止外转,下载龙网资源请至龙网原创区.rtf (807Bytes)
Powered by BTMaster.cn Version:1.3.3