【龙网转发】【2023高分喜剧】【好像也没那么热血沸腾】【WebDL-2160p.MKV】【国语】 - 龙网BT发布页 - 梦幻天堂·龙网专属BT发布页
资源名称: 【龙网转发】【2023高分喜剧】【好像也没那么热血沸腾】【WebDL-2160p.MKV】【国语】 [参与讨论]
发布者: 由 lwgod 发布于2023/12/14 15:47
发布联盟:
资源介绍:
海报
 
Image
 
Image
 
译  名 好像也没那么热血沸腾/热血沸腾/篮球冠军中国版
片  名 Lose to Win
年  代 2023
国  家 中国
类  别 喜剧/运动
语  言 汉语普通话
字  幕 中英硬字幕
评  分 7.0/10 from 33,708 users
文件大小 4.66 GB
片  长 134 Min
导  演 高虎 Hu Gao
主  演 魏翔 Xiang Wei
     王智 Zhi Wang
     岳亮 Liang Yue
     艾伦 Allen
     王子异 Boogie Wang
     周大勇 Dayong Zhou
     韩笑 Xiao Han
     建康 Kang Jian
     刘沐琪 Muqi Liu
     刘斯博 Sibo Liu
     刘雪涛 Xuetao Liu
 
简介
 
  对胜利无比执着的篮球教练魏国铮(魏翔 饰),因违规受罚被迫进入一所特殊的学校支教。当奉行“打球就是为了赢”的自负教练,遇上一群热爱篮球但“能力值为负”的球员,在鸡同鸭讲式的日常相处和不停陷入中断的篮球训练中,濒临崩溃的魏教练会有奇招延续自己的不败神话吗?他们又能否一起负负得正,在即将到来的联赛上一路高歌猛进、披荆斩棘、勇夺冠军?
 
  影片改编自西班牙电影《篮球冠军》。
 
Video
Format                         : HEVC
Format/Info                    : High Efficiency Video Coding
Format profile                 : Main 10 @ L5.1 @ Main
Codec ID                       : V_MPEGH/ISO/HEVC
Duration                       : 2 h 14 min
Bit rate                       : 4 781 kb/s
Width                          : 3 840 pixels
Height                         : 1 608 pixels
Display aspect ratio           : 2.40:1
Frame rate mode                : Constant
Frame rate                     : 60.000 FPS
Color space                    : YUV
Chroma subsampling             : 4:2:0
Bit depth                      : 10 bits
Bits/(Pixel*Frame)             : 0.013
Stream size                    : 4.48 GiB (96%)
Color range                    : Limited
Color primaries                : BT.709
Transfer characteristics       : BT.709
Matrix coefficients            : BT.709
 
Audio
Format                         : AAC LC
Format/Info                    : Advanced Audio Codec Low Complexity
Codec ID                       : A_AAC-2
Duration                       : 2 h 14 min
Bit rate                       : 192 kb/s
Channel(s)                     : 2 channels
Channel layout                 : L R
Sampling rate                  : 44.1 kHz
Frame rate                     : 43.066 FPS (1024 SPF)
Compression mode               : Lossy
Stream size                    : 184 MiB (4%)
 
截图
 
Image
下载资源: Download 开始下载
文件总大小: 4.7GB (种子:3,下载:1,完成:137)    
包含文件: URL 梦幻天堂·龙网(www.LWgod.org).好像也没那么热血沸腾/本片海报、简介、截图等双击这里进入发布地址查看.url (198Bytes)
URL 梦幻天堂·龙网(www.LWgod.org).好像也没那么热血沸腾/梦幻天堂·龙网(www.LWgod.org) 质量第一 品质保证.url (176Bytes)
UNKNOWN 梦幻天堂·龙网(www.LWgod.org).好像也没那么热血沸腾/梦幻天堂·龙网(www.LWgod.org) 超多爆爽资源下载目录.rtf (2.1KB)
MKV 梦幻天堂·龙网(www.LWgod.org).好像也没那么热血沸腾/梦幻天堂·龙网(www.LWgod.org).好像也没那么热血沸腾.mkv (4.7GB)
UNKNOWN 梦幻天堂·龙网(www.LWgod.org).好像也没那么热血沸腾/梦幻天堂·龙网最新网址 www.LWgod.org 请重新收藏.rtf (890Bytes)
UNKNOWN 梦幻天堂·龙网(www.LWgod.org).好像也没那么热血沸腾/龙网种子即将停止外转,下载龙网资源请至龙网原创区.rtf (807Bytes)
Powered by BTMaster.cn Version:1.3.3