【龙网转发】【中2023超高分热门必看】【画江湖之天罡】【WebDL-2160p.MKV】【国语】 - 龙网BT发布页 - 梦幻天堂·龙网专属BT发布页
资源名称: 【龙网转发】【中2023超高分热门必看】【画江湖之天罡】【WebDL-2160p.MKV】【国语】 [参与讨论]
发布者: 由 lwgod 发布于2024/01/06 16:11
发布联盟:
资源介绍:
海报
 
Image
 
Image
 
译  名 画江湖之天罡/画江湖之天罡传
片  名 The Legend
年  代 2023
国  家 中国
类  别 动作/动画/武侠
语  言 汉语普通话
字  幕 中文硬字幕
评  分 8.1/10 from 33,618 users
文件大小 3.90 GB
片  长 101 Min
导  演 周飞龙 Feilong Zhou
     任伟杰 Weijie Ren
主  演 孟宇 Yu Meng
     阎么么 Meme Yan
     王凯 Kai Wang
     郭政建 Zhengjian Guo
     阎萌萌 Mengmeng Yan
     杨默 Mo Yang
     高枫 Feng Gao
     齐斯伽 Sijia Qi
     刘芊含 Qianhan Liu
     马程 Cheng Ma
     王金笛 Jindi Wang
 
简介
 
  大周年间,时局动荡,奸臣当道。直属帝王的秘密暗杀组织不良人一夜之间突然群龙无首,不良帅袁天罡留下一纸书信辞官而去。失去人生方向的袁天罡,在好友李淳风留下的锦囊的指引下,来到了长安安乐阁,却不曾想到此地竟是风月之所。而接下来发生的一切,随着寻求自由之人、寻求不死之人、寻求权力之人的逐一登场,为袁天罡的旅途拉开了新的序幕……
 
Video
Format                         : HEVC
Format/Info                    : High Efficiency Video Coding
Format profile                 : Main@L5@Main
Codec ID                       : V_MPEGH/ISO/HEVC
Duration                       : 1 h 41 min
Bit rate                       : 5 149 kb/s
Width                          : 3 840 pixels
Height                         : 1 598 pixels
Display aspect ratio           : 2.40:1
Frame rate mode                : Constant
Frame rate                     : 25.000 FPS
Color space                    : YUV
Chroma subsampling             : 4:2:0
Bit depth                      : 8 bits
Bits/(Pixel*Frame)             : 0.034
Stream size                    : 3.63 GiB (93%)
Color range                    : Limited
Color primaries                : BT.709
Transfer characteristics       : BT.709
Matrix coefficients            : BT.709
 
Audio
Format                         : E-AC-3
Format/Info                    : Enhanced AC-3
Commercial name                : Dolby Digital Plus
Codec ID                       : A_EAC3
Duration                       : 1 h 41 min
Bit rate mode                  : Constant
Bit rate                       : 384 kb/s
Channel(s)                     : 6 channels
Channel layout                 : L R C LFE Ls Rs
Sampling rate                  : 48.0 kHz
Frame rate                     : 31.250 FPS (1536 SPF)
Compression mode               : Lossy
Stream size                    : 277 MiB (7%)
Service kind                   : Complete Main
 
截图
 
Image
下载资源: Download 开始下载
文件总大小: 3.9GB (种子:3,下载:1,完成:232)    
包含文件: URL 梦幻天堂·龙网(www.LWgod.org).画江湖之天罡/本片海报、简介、截图等双击这里进入发布地址查看.url (198Bytes)
URL 梦幻天堂·龙网(www.LWgod.org).画江湖之天罡/梦幻天堂·龙网(www.LWgod.org) 质量第一 品质保证.url (176Bytes)
UNKNOWN 梦幻天堂·龙网(www.LWgod.org).画江湖之天罡/梦幻天堂·龙网(www.LWgod.org) 超多爆爽资源下载目录.rtf (2.1KB)
MKV 梦幻天堂·龙网(www.LWgod.org).画江湖之天罡/梦幻天堂·龙网(www.LWgod.org).画江湖之天罡.mkv (3.9GB)
UNKNOWN 梦幻天堂·龙网(www.LWgod.org).画江湖之天罡/梦幻天堂·龙网最新网址 www.LWgod.org 请重新收藏.rtf (890Bytes)
UNKNOWN 梦幻天堂·龙网(www.LWgod.org).画江湖之天罡/龙网种子即将停止外转,下载龙网资源请至龙网原创区.rtf (807Bytes)
Powered by BTMaster.cn Version:1.3.3