【龙网转发】【美国2022万众期待冒险巨制】【神秘海域】【WebDL-2160p.MKV】【中字】 - 龙网BT发布页 - 梦幻天堂·龙网专属BT发布页
资源名称: 【龙网转发】【美国2022万众期待冒险巨制】【神秘海域】【WebDL-2160p.MKV】【中字】 [参与讨论]
发布者: 由 lwgod 发布于2022/04/23 22:14
发布联盟:
资源介绍:
海报
 
Image
 
Image
 
译  名 神秘海域/秘境探险(港/台)/神秘海域:德雷克船长的宝藏
片  名 Uncharted
年  代 2022
国  家 美国
类  别 动作/冒险
语  言 英语/西班牙语
字  幕 中简/中繁/英语
评  分 6.3/10 from 40,912 users
文件大小 10.0 GB
片  长 116 Min
导  演 鲁本·弗雷斯彻 Ruben Fleischer
主  演 汤姆·赫兰德 Tom Holland
     马克·沃尔伯格 Mark Wahlberg
     索菲娅·阿里 Sophia Ali
     塔蒂·加布里埃 Tati Gabrielle
     安东尼奥·班德拉斯 Antonio Banderas
     史蒂芬·威丁顿 Steven Waddington
     乔治娅·古德曼 Georgia Goodman
     迪尔梅德·默塔 Diarmaid Murtagh
     约瑟夫·巴德拉玛 Joseph Balderrama
     阿拉娜·博登 Alana Boden
     罗伯特‧马瑟 Robert Maaser
 
简介
 
  足智多谋的内森·德雷克(汤姆·赫兰德 饰)和经验丰富的寻宝者维克多·苏利文(马克·沃尔伯格 饰)组成搭档,追寻费迪南·麦哲伦500年前遗失的宝藏。一开始,这似乎只是个简单的寻宝工作,但很快演变成了一场惊险刺激、横跨全球的竞赛。他们必须赶在冷酷无情的蒙卡达(安东尼奥·班德拉斯 饰)之前寻得宝藏。蒙卡达坚信他和他的家族才是宝藏的正当继承人。若内森和苏利文能破译线索,解开这世界上最古老的谜团,他们便能找到价值50亿美元的宝藏,甚至还可能找到内森失踪已久的哥哥……但首先,他们必须学会通力合作。
 
Video
Format                         : HEVC
Format/Info                    : High Efficiency Video Coding
Format profile                 : Main 10 @ L5 @ High
Codec ID                       : V_MPEGH/ISO/HEVC
Duration                       : 1 h 56 min
Bit rate                       : 12.0 Mb/s
Width                          : 3 840 pixels
Height                         : 1 580 pixels
Display aspect ratio           : 2.40:1
Frame rate mode                : Constant
Frame rate                     : 23.976 (23976/1000) FPS
Color space                    : YUV
Chroma subsampling             : 4:2:0
Bit depth                      : 10 bits
Bits/(Pixel*Frame)             : 0.082
Stream size                    : 9.71 GiB (97%)
Color range                    : Limited
Color primaries                : BT.709
Transfer characteristics       : BT.709
Matrix coefficients            : BT.709
 
Audio
Format                         : AC-3
Format/Info                    : Audio Coding 3
Commercial name                : Dolby Digital
Codec ID                       : A_AC3
Duration                       : 1 h 55 min
Bit rate mode                  : Constant
Bit rate                       : 384 kb/s
Channel(s)                     : 6 channels
Channel layout                 : L R C LFE Ls Rs
Sampling rate                  : 48.0 kHz
Frame rate                     : 31.250 FPS (1536 SPF)
Compression mode               : Lossy
Stream size                    : 318 MiB (3%)
Service kind                   : Complete Main
 
截图
 
Image
下载资源: Download 开始下载
文件总大小: 10.0GB (种子:4,下载:5,完成:1083)    
包含文件: URL 梦幻天堂·龙网(www.LWgod.org).神秘海域.秘境探险/本片海报、简介、截图等双击这里进入发布地址查看.url (198Bytes)
URL 梦幻天堂·龙网(www.LWgod.org).神秘海域.秘境探险/梦幻天堂·龙网(www.LWgod.org) 质量第一 品质保证.url (176Bytes)
UNKNOWN 梦幻天堂·龙网(www.LWgod.org).神秘海域.秘境探险/梦幻天堂·龙网(www.LWgod.org) 超多爆爽资源下载目录.rtf (2.1KB)
MKV 梦幻天堂·龙网(www.LWgod.org).神秘海域.秘境探险/梦幻天堂·龙网(www.LWgod.org).神秘海域.秘境探险.mkv (10.0GB)
UNKNOWN 梦幻天堂·龙网(www.LWgod.org).神秘海域.秘境探险/梦幻天堂·龙网最新网址 www.LWgod.org 请重新收藏.rtf (890Bytes)
Powered by BTMaster.cn Version:1.3.3