【龙网转发】【美2022最新史诗暴力动作巨制】【北欧人】【WebDL-1080p.MKV】【中字】 - 龙网BT发布页 - 梦幻天堂·龙网专属BT发布页
资源名称: 【龙网转发】【美2022最新史诗暴力动作巨制】【北欧人】【WebDL-1080p.MKV】【中字】 [参与讨论]
发布者: 由 lwgod 发布于2022/05/16 20:37
发布联盟:
资源介绍:
海报
 
Image
 
Image
 
译  名 北欧人/北方人(台)
片  名 The Northman
年  代 2022
国  家 美国
类  别 动作/冒险/剧情/惊悚
语  言 英语
字  幕 中简/中繁/英文
评  分 7.6/10 from 69,724 users
文件大小 8.25 GB
片  长 137 Min
导  演 罗伯特·艾格斯 Robert Eggers
主  演 亚历山大·斯卡斯加德 Alexander Skarsgard
     妮可·基德曼 Nicole Kidman
     克拉斯·邦 Claes Bang
     伊桑·霍克 Ethan Hawke
     安雅·泰勒-乔伊 Anya Taylor-Joy
     古斯塔夫·林德 Gustav Lindh
     威廉·达福 Willem Dafoe
     艾略特·罗斯 Elliott Rose
     菲尔·马丁 Phill Martin
     埃尔达·斯卡 Eldar Skar
     欧文·弗热瑞 Olwen Fouere
 
简介
 
  在10世纪的冰岛,一位维京王子为被谋杀的父亲复仇的史诗故事。
 
  本片的故事聚焦在一场发生在10世纪冰岛的维京人的“复仇之战”上。描述由亚历山大·斯卡斯加德饰演的北欧王子,为了找到被谋杀的父亲,踏上一场复仇之旅。
 
Video
Format                         : AVC
Format/Info                    : Advanced Video Codec
Format profile                 : High @ L4
Format settings                : CABAC / 4 Ref Frames
Format settings, CABAC         : Yes
Format settings, Reference fra : 4 frames
Codec ID                       : V_MPEG4/ISO/AVC
Duration                       : 2 h 17 min
Bit rate                       : 8 000 kb/s
Width                          : 1 920 pixels
Height                         : 1 080 pixels
Display aspect ratio           : 16:9
Frame rate mode                : Constant
Frame rate                     : 23.976 (24000/1001) FPS
Color space                    : YUV
Chroma subsampling             : 4:2:0
Bit depth                      : 8 bits
Scan type                      : Progressive
Bits/(Pixel*Frame)             : 0.161
Stream size                    : 7.51 GiB (91%)
Writing library                : x264 core 164 r3094 bfc87b7
Encoding settings              : cabac=1 / ref=4 / deblock=1:-1:-1 / analyse=0x3:0x133 / me=umh / subme=9 / psy=1 / psy_rd=1.00:0.15 / mixed_ref=1 / me_range=16 / chroma_me=1 / trellis=2 / 8x8dct=1 / cqm=0 / deadzone=21,11 / fast_pskip=1 / chroma_qp_offset=-3 / threads=12 / lookahead_threads=1 / sliced_threads=0 / nr=0 / decimate=1 / interlaced=0 / bluray_compat=0 / stitchable=1 / constrained_intra=0 / bframes=3 / b_pyramid=2 / b_adapt=2 / b_bias=0 / direct=3 / weightb=1 / open_gop=0 / weightp=2 / keyint=48 / keyint_min=4 / scenecut=0 / intra_refresh=0 / rc_lookahead=48 / rc=abr / mbtree=1 / bitrate=8000 / ratetol=1.0 / qcomp=0.60 / qpmin=0 / qpmax=69 / qpstep=4 / vbv_maxrate=8800 / vbv_bufsize=16000 / nal_hrd=none / filler=0 / ip_ratio=1.40 / aq=1:1.00
Color range                    : Limited
Color primaries                : BT.709
Transfer characteristics       : BT.709
Matrix coefficients            : BT.709
 
Audio
Format                         : E-AC-3 JOC
Format/Info                    : Enhanced AC-3 with Joint Object Coding
Commercial name                : Dolby Digital Plus with Dolby Atmos
Codec ID                       : A_EAC3
Duration                       : 2 h 17 min
Bit rate mode                  : Constant
Bit rate                       : 768 kb/s
Channel(s)                     : 6 channels
Channel layout                 : L R C LFE Ls Rs
Sampling rate                  : 48.0 kHz
Frame rate                     : 31.250 FPS (1536 SPF)
Compression mode               : Lossy
Stream size                    : 753 MiB (9%)
Service kind                   : Complete Main
Complexity index               : 16
Number of dynamic objects      : 15
Bed channel count              : 1 channel
Bed channel configuration      : LFE
 
截图
 
Image
下载资源: Download 开始下载
文件总大小: 8.3GB (种子:3,下载:3,完成:704)    
包含文件: URL 梦幻天堂·龙网(www.LWgod.org).北欧人.北方人/本片海报、简介、截图等双击这里进入发布地址查看.url (198Bytes)
URL 梦幻天堂·龙网(www.LWgod.org).北欧人.北方人/梦幻天堂·龙网(www.LWgod.org) 质量第一 品质保证.url (176Bytes)
UNKNOWN 梦幻天堂·龙网(www.LWgod.org).北欧人.北方人/梦幻天堂·龙网(www.LWgod.org) 超多爆爽资源下载目录.rtf (2.1KB)
MKV 梦幻天堂·龙网(www.LWgod.org).北欧人.北方人/梦幻天堂·龙网(www.LWgod.org).北欧人.北方人.mkv (8.3GB)
UNKNOWN 梦幻天堂·龙网(www.LWgod.org).北欧人.北方人/梦幻天堂·龙网最新网址 www.LWgod.org 请重新收藏.rtf (890Bytes)
Powered by BTMaster.cn Version:1.3.3