【龙网转发】【美国2023最新火爆动作喜剧】【家庭计划】【WebDL-1080p.MKV】【中字】 - 龙网BT发布页 - 梦幻天堂·龙网专属BT发布页
资源名称: 【龙网转发】【美国2023最新火爆动作喜剧】【家庭计划】【WebDL-1080p.MKV】【中字】 [参与讨论]
发布者: 由 lwgod 发布于2023/12/20 15:09
发布联盟:
资源介绍:
海报
 
Image
 
译  名 家庭计划/全家逃走中(台)
片  名 The Family Plan
年  代 2023
国  家 美国
类  别 动作/喜剧
语  言 英语
字  幕 中简/中繁/英文
评  分 6.6/10 from 2,454 users
文件大小 8.84 GB
片  长 118 Min
导  演 西蒙·赛伦·琼斯 Simon Cellan Jones
主  演 马克·沃尔伯格 Mark Wahlberg
     米歇尔·莫纳汉 Michelle Monaghan
     塞伦·希德 Ciaran Hinds
     佐伊·玛格丽特·科莱蒂 Zoe Margaret Colletti
     凡·克罗斯比 Van Crosby
     李美琪 Maggie Q
     菲利西亚·皮尔森 Felicia Pearson
     萨伊德·塔格马奥 Said Taghmaoui
     约翰尼·科瓦内 Jonny Coyne
     Savanna Gann
     Valkyrae
 
简介
 
  一个顶级杀手(马克·沃尔伯格 饰)退隐江湖,现在是住在郊区的全职奶爸,没想到仇人找上门来。他必须带着全家去拉斯维加斯旅行同时,干掉追杀他的人。讲述一个住在郊区的父亲在他隐藏的过往即将揭秘时、如何带领家人逃亡的故事。
 
Video
Format                         : AVC
Format/Info                    : Advanced Video Codec
Format profile                 : High@L4
Format settings                : CABAC / 5 Ref Frames
Format settings, CABAC         : Yes
Format settings, Reference fra : 5 frames
Codec ID                       : V_MPEG4/ISO/AVC
Duration                       : 1 h 58 min
Bit rate                       : 9 882 kb/s
Width                          : 1 920 pixels
Height                         : 804 pixels
Display aspect ratio           : 2.40:1
Frame rate mode                : Constant
Frame rate                     : 23.976 FPS
Color space                    : YUV
Chroma subsampling             : 4:2:0
Bit depth                      : 8 bits
Scan type                      : Progressive
Bits/(Pixel*Frame)             : 0.267
Stream size                    : 8.20 GiB (93%)
Color range                    : Limited
Color primaries                : BT.709
Transfer characteristics       : BT.709
Matrix coefficients            : BT.709
 
Audio
Format                         : E-AC-3 JOC
Format/Info                    : Enhanced AC-3 with Joint Object Coding
Commercial name                : Dolby Digital Plus with Dolby Atmos
Codec ID                       : A_EAC3
Duration                       : 1 h 58 min
Bit rate mode                  : Constant
Bit rate                       : 768 kb/s
Channel(s)                     : 6 channels
Channel layout                 : L R C LFE Ls Rs
Sampling rate                  : 48.0 kHz
Frame rate                     : 31.250 FPS (1536 SPF)
Compression mode               : Lossy
Stream size                    : 652 MiB (7%)
Language                       : English
Service kind                   : Complete Main
 
截图
 
Image
下载资源: Download 开始下载
文件总大小: 8.8GB (种子:4,下载:1,完成:405)    
包含文件: URL 梦幻天堂·龙网(www.LWgod.org).家庭计划.全家逃走中/本片海报、简介、截图等双击这里进入发布地址查看.url (198Bytes)
URL 梦幻天堂·龙网(www.LWgod.org).家庭计划.全家逃走中/梦幻天堂·龙网(www.LWgod.org) 质量第一 品质保证.url (176Bytes)
UNKNOWN 梦幻天堂·龙网(www.LWgod.org).家庭计划.全家逃走中/梦幻天堂·龙网(www.LWgod.org) 超多爆爽资源下载目录.rtf (2.1KB)
MKV 梦幻天堂·龙网(www.LWgod.org).家庭计划.全家逃走中/梦幻天堂·龙网(www.LWgod.org).家庭计划.全家逃走中.mkv (8.8GB)
UNKNOWN 梦幻天堂·龙网(www.LWgod.org).家庭计划.全家逃走中/梦幻天堂·龙网最新网址 www.LWgod.org 请重新收藏.rtf (890Bytes)
UNKNOWN 梦幻天堂·龙网(www.LWgod.org).家庭计划.全家逃走中/龙网种子即将停止外转,下载龙网资源请至龙网原创区.rtf (807Bytes)
Powered by BTMaster.cn Version:1.3.3