【龙网转发】【中国2023最新高分获奖好片】【白塔之光】【WebDL-2160p.MKV】【国语】 - 龙网BT发布页 - 梦幻天堂·龙网专属BT发布页
资源名称: 【龙网转发】【中国2023最新高分获奖好片】【白塔之光】【WebDL-2160p.MKV】【国语】 [参与讨论]
发布者: 由 lwgod 发布于2023/12/04 15:48
发布联盟:
资源介绍:
海报
 
Image
 
Image
 
译  名 白塔之光
片  名 The Shadowless Tower
年  代 2023
国  家 中国
类  别 剧情
语  言 汉语普通话/粤语
字  幕 中英硬字幕
评  分 7.1/10 from 13,699 users
文件大小 4.40 GB
片  长 144 Min
导  演 张律 Lu Zhang
主  演 辛柏青 Baiqing Xin
     黄尧 Yao Huang
     田壮壮 Zhuangzhuang Tian
     南吉 Ji Nan
     李勤勤 Qinqin Li
     王宏伟 Hongwei Wang
     王奕雯 Yiwen Wang
     刘丹 Dan Liu
     张献民 Xianmin Zhang
     朱文 Wen Zhu
     毛乐 Le Mao
 
简介
 
  本片讲述独自生活的美食专栏撰稿人谷文通(辛柏青 饰),偶然间认识了同样一个人的摄影师欧阳文慧(黄尧 饰),两个孤独的灵魂相互陪伴,一起徘徊在人来人往的北京街头,寻找内心的归宿。一次偶然的机会,谷文通得知了欧阳文慧的隐痛往事,又发现了自己父亲(田壮壮 饰)失联四十多年的真相,让他的生活有了新的变化……
 
Video
Format                         : HEVC
Format/Info                    : High Efficiency Video Coding
Format profile                 : Main@L5@Main
Codec ID                       : V_MPEGH/ISO/HEVC
Duration                       : 2 h 24 min
Bit rate                       : 4 127 kb/s
Width                          : 3 840 pixels
Height                         : 2 160 pixels
Display aspect ratio           : 16:9
Frame rate mode                : Constant
Frame rate                     : 24.000 FPS
Color space                    : YUV
Chroma subsampling             : 4:2:0
Bit depth                      : 8 bits
Bits/(Pixel*Frame)             : 0.021
Stream size                    : 4.15 GiB (94%)
 
Audio
Format                         : E-AC-3
Format/Info                    : Enhanced AC-3
Commercial name                : Dolby Digital Plus
Codec ID                       : A_EAC3
Duration                       : 2 h 24 min
Bit rate mode                  : Constant
Bit rate                       : 256 kb/s
Channel(s)                     : 6 channels
Channel layout                 : L R C LFE Ls Rs
Sampling rate                  : 48.0 kHz
Frame rate                     : 31.250 FPS (1536 SPF)
Compression mode               : Lossy
Stream size                    : 264 MiB (6%)
Service kind                   : Complete Main
 
截图
 
Image
下载资源: Download 开始下载
文件总大小: 4.4GB (种子:4,下载:0,完成:213)    
包含文件: URL 梦幻天堂·龙网(www.LWgod.org).白塔之光/本片海报、简介、截图等双击这里进入发布地址查看.url (198Bytes)
URL 梦幻天堂·龙网(www.LWgod.org).白塔之光/梦幻天堂·龙网(www.LWgod.org) 质量第一 品质保证.url (176Bytes)
UNKNOWN 梦幻天堂·龙网(www.LWgod.org).白塔之光/梦幻天堂·龙网(www.LWgod.org) 超多爆爽资源下载目录.rtf (2.1KB)
MKV 梦幻天堂·龙网(www.LWgod.org).白塔之光/梦幻天堂·龙网(www.LWgod.org).白塔之光.mkv (4.4GB)
UNKNOWN 梦幻天堂·龙网(www.LWgod.org).白塔之光/梦幻天堂·龙网最新网址 www.LWgod.org 请重新收藏.rtf (890Bytes)
UNKNOWN 梦幻天堂·龙网(www.LWgod.org).白塔之光/龙网种子即将停止外转,下载龙网资源请至龙网原创区.rtf (807Bytes)
Powered by BTMaster.cn Version:1.3.3