【龙网转发】【漫威宇宙2021超高分】【旺达幻视.全9集】【WebDL-1080p.MKV】【双语】 - 龙网BT发布页 - 梦幻天堂·龙网专属BT发布页
资源名称: 【龙网转发】【漫威宇宙2021超高分】【旺达幻视.全9集】【WebDL-1080p.MKV】【双语】 [参与讨论]
发布者: 由 lwgod 发布于2024/01/06 21:13
发布联盟:
资源介绍:
漫威宇宙系列有多部剧集,比如此部
奇异博士2的剧情就是接着此剧来的
如果没看此剧,看奇异博士2可能会有些接不上
比如旺达的孩子是哪里来的?
另外强烈推荐此剧,超好看不容错过!
以后漫威宇宙的剧集都会补上,大家耐心等待!
 
海报
 
Image
 
Image
 
译  名 旺达幻视/幻视与绯红女巫/幻视与猩红女巫/旺达幻象/旺达与幻视/汪达幻视(台)/温黛与幻视(港)
片  名 WandaVision
年  代 2021
国  家 美国
类  别 动作/喜剧/科幻/奇幻/冒险
语  言 英语国语双音轨
字  幕 中简/中繁/英文
评  分 9.0/10 from 204,003 users
文件大小 17.7 GB
单集片长 30 Min
集  数 9
导  演 马特·沙克曼 Matt Shakman
主  演 伊丽莎白·奥尔森 Elizabeth Olsen
     保罗·贝坦尼 Paul Bettany
     凯瑟琳·哈恩 Kathryn Hahn
     泰柔娜·派丽丝 Teyonah Parris
     乔什·斯坦伯 Josh Stamberg
     埃文·彼得斯 Evan Peters
     兰道尔·朴 Randall Park
     凯特·戴琳斯 Kat Dennings
     大卫·A·佩顿 David A Payton
     大卫·伦格尔 David Lengel
     阿莫斯·格里克 Amos Glick
 
简介
 
  《旺达幻视》故事围绕幻视和绯红女巫的爱情和冒险展开,主线时间发生在《复仇者联盟4:终局之战》之后。自从幻视死后,旺达(伊丽莎白·奥尔森 饰)失去理智地用魔法控制了小镇“西景镇”,并创造了全新的幻视(保罗·贝坦尼 饰)。在这个世界中,她跟幻视恩爱幸福,但随着天剑局的介入,旺达的宁静再度被打破。
 
Video
Format                         : AVC
Format/Info                    : Advanced Video Codec
Format profile                 : High@L4
Format settings                : CABAC / 4 Ref Frames
Format settings, CABAC         : Yes
Format settings, Reference fra : 4 frames
Codec ID                       : V_MPEG4/ISO/AVC
Duration                       : 26 min 33 s
Bit rate mode                  : Variable
Bit rate                       : 6 449 kb/s
Maximum bit rate               : 12.7 Mb/s
Width                          : 1 920 pixels
Height                         : 1 080 pixels
Display aspect ratio           : 16:9
Frame rate mode                : Constant
Frame rate                     : 23.976 (24000/1001) FPS
Color space                    : YUV
Chroma subsampling             : 4:2:0
Bit depth                      : 8 bits
Scan type                      : Progressive
Bits/(Pixel*Frame)             : 0.130
Stream size                    : 1.20 GiB (86%)
Color range                    : Limited
Color primaries                : BT.709
Transfer characteristics       : BT.709
Matrix coefficients            : BT.709
 
Audio #1
Format                         : E-AC-3 JOC
Format/Info                    : Enhanced AC-3 with Joint Object Coding
Commercial name                : Dolby Digital Plus with Dolby Atmos
Codec ID                       : A_EAC3
Duration                       : 26 min 33 s
Bit rate mode                  : Constant
Bit rate                       : 768 kb/s
Channel(s)                     : 6 channels
Channel layout                 : L R C LFE Ls Rs
Sampling rate                  : 48.0 kHz
Frame rate                     : 31.250 FPS (1536 SPF)
Compression mode               : Lossy
Stream size                    : 146 MiB (10%)
Language                       : English
Service kind                   : Complete Main
 
Audio #2
Format                         : E-AC-3
Format/Info                    : Enhanced AC-3
Commercial name                : Dolby Digital Plus
Codec ID                       : A_EAC3
Duration                       : 26 min 33 s
Bit rate mode                  : Constant
Bit rate                       : 256 kb/s
Channel(s)                     : 6 channels
Channel layout                 : L R C LFE Ls Rs
Sampling rate                  : 48.0 kHz
Frame rate                     : 31.250 FPS (1536 SPF)
Compression mode               : Lossy
Stream size                    : 48.6 MiB (3%)
Language                       : Chinese
Service kind                   : Complete Main
 
截图
 
Image
 
Image
下载资源: Download 开始下载
文件总大小: 17.8GB (种子:2,下载:2,完成:354)    
包含文件: URL 梦幻天堂·龙网(www.LWgod.org).旺达幻视.全9集/本片海报、简介、截图等双击这里进入发布地址查看.url (198Bytes)
URL 梦幻天堂·龙网(www.LWgod.org).旺达幻视.全9集/梦幻天堂·龙网(www.LWgod.org) 质量第一 品质保证.url (176Bytes)
UNKNOWN 梦幻天堂·龙网(www.LWgod.org).旺达幻视.全9集/梦幻天堂·龙网(www.LWgod.org) 超多爆爽资源下载目录.rtf (2.1KB)
MKV 梦幻天堂·龙网(www.LWgod.org).旺达幻视.全9集/梦幻天堂·龙网(www.LWgod.org).旺达幻视.第1集.mkv (1.4GB)
MKV 梦幻天堂·龙网(www.LWgod.org).旺达幻视.全9集/梦幻天堂·龙网(www.LWgod.org).旺达幻视.第2集.mkv (1.9GB)
MKV 梦幻天堂·龙网(www.LWgod.org).旺达幻视.全9集/梦幻天堂·龙网(www.LWgod.org).旺达幻视.第3集.mkv (1.7GB)
MKV 梦幻天堂·龙网(www.LWgod.org).旺达幻视.全9集/梦幻天堂·龙网(www.LWgod.org).旺达幻视.第4集.mkv (1.8GB)
MKV 梦幻天堂·龙网(www.LWgod.org).旺达幻视.全9集/梦幻天堂·龙网(www.LWgod.org).旺达幻视.第5集.mkv (2.1GB)
MKV 梦幻天堂·龙网(www.LWgod.org).旺达幻视.全9集/梦幻天堂·龙网(www.LWgod.org).旺达幻视.第6集.mkv (2.0GB)
MKV 梦幻天堂·龙网(www.LWgod.org).旺达幻视.全9集/梦幻天堂·龙网(www.LWgod.org).旺达幻视.第7集.mkv (2.0GB)
MKV 梦幻天堂·龙网(www.LWgod.org).旺达幻视.全9集/梦幻天堂·龙网(www.LWgod.org).旺达幻视.第8集.mkv (2.3GB)
MKV 梦幻天堂·龙网(www.LWgod.org).旺达幻视.全9集/梦幻天堂·龙网(www.LWgod.org).旺达幻视.第9集.mkv (2.6GB)
UNKNOWN 梦幻天堂·龙网(www.LWgod.org).旺达幻视.全9集/梦幻天堂·龙网最新网址 www.LWgod.org 请重新收藏.rtf (890Bytes)
UNKNOWN 梦幻天堂·龙网(www.LWgod.org).旺达幻视.全9集/龙网种子即将停止外转,下载龙网资源请至龙网原创区.rtf (807Bytes)
Powered by BTMaster.cn Version:1.3.3