【龙网转发】【范冰冰2023最新限制级剧情新片】【绿夜】【WebDL-1080p.MKV】【中字】 - 龙网BT发布页 - 梦幻天堂·龙网专属BT发布页
资源名称: 【龙网转发】【范冰冰2023最新限制级剧情新片】【绿夜】【WebDL-1080p.MKV】【中字】 [参与讨论]
发布者: 由 lwgod 发布于2023/12/13 16:47
发布联盟:
资源介绍:
海报
 
Image
 
Image
 
译  名 绿夜
片  名 Green Night
年  代 2023
国  家 中国香港
类  别 剧情/同性
语  言 韩语/汉语普通话
字  幕 中简/中繁
评  分 5.4/10 from 14,838 users
文件大小 3.30 GB
片  长 92 Min
导  演 韩帅 Shuai Han
主  演 范冰冰 Bingbing Fan
     李周映 Joo-young Lee
     金英浩 Young-ho Kim
 
简介
 
  中国移民静霞在首尔机场安检处工作,某天一个绿发女孩闯入了她的视线。这个对搜身检查毫不在乎的女孩让静霞着迷。为了摆脱各自无用的丈夫,她们冒险走进韩国黑帮的领地,与试图支配和占有她们的人抗争——她们学会了只依靠自己。影片讲述两个绝望边缘女人为解放自己、逃离无用丈夫,互相帮助扶持,在首尔的迷乱世界中的冒险故事。
 
Video
Format                         : AVC
Format/Info                    : Advanced Video Codec
Format profile                 : High@L4
Format settings                : CABAC / 4 Ref Frames
Format settings, CABAC         : Yes
Format settings, Reference fra : 4 frames
Codec ID                       : V_MPEG4/ISO/AVC
Duration                       : 1 h 32 min
Bit rate mode                  : Variable
Bit rate                       : 4 894 kb/s
Maximum bit rate               : 10 000 kb/s
Width                          : 1 920 pixels
Height                         : 1 080 pixels
Display aspect ratio           : 16:9
Frame rate mode                : Constant
Frame rate                     : 24.000 FPS
Color space                    : YUV
Chroma subsampling             : 4:2:0
Bit depth                      : 8 bits
Scan type                      : Progressive
Bits/(Pixel*Frame)             : 0.098
Stream size                    : 3.17 GiB (96%)
 
Audio
Format                         : AAC LC
Format/Info                    : Advanced Audio Codec Low Complexity
Codec ID                       : A_AAC-2
Duration                       : 1 h 32 min
Bit rate                       : 192 kb/s
Channel(s)                     : 2 channels
Channel layout                 : L R
Sampling rate                  : 48.0 kHz
Frame rate                     : 46.875 FPS (1024 SPF)
Compression mode               : Lossy
Stream size                    : 127 MiB (4%)
 
截图
 
Image
 
Image
 
Image
 
Image
 
Image
下载资源: Download 开始下载
文件总大小: 3.3GB (种子:3,下载:4,完成:1144)    
包含文件: URL 梦幻天堂·龙网(www.LWgod.org).绿夜.范冰冰2023新片/本片海报、简介、截图等双击这里进入发布地址查看.url (198Bytes)
URL 梦幻天堂·龙网(www.LWgod.org).绿夜.范冰冰2023新片/梦幻天堂·龙网(www.LWgod.org) 质量第一 品质保证.url (176Bytes)
UNKNOWN 梦幻天堂·龙网(www.LWgod.org).绿夜.范冰冰2023新片/梦幻天堂·龙网(www.LWgod.org) 超多爆爽资源下载目录.rtf (2.1KB)
MKV 梦幻天堂·龙网(www.LWgod.org).绿夜.范冰冰2023新片/梦幻天堂·龙网(www.LWgod.org).绿夜.范冰冰2023新片.mkv (3.3GB)
UNKNOWN 梦幻天堂·龙网(www.LWgod.org).绿夜.范冰冰2023新片/梦幻天堂·龙网最新网址 www.LWgod.org 请重新收藏.rtf (890Bytes)
UNKNOWN 梦幻天堂·龙网(www.LWgod.org).绿夜.范冰冰2023新片/龙网种子即将停止外转,下载龙网资源请至龙网原创区.rtf (807Bytes)
Powered by BTMaster.cn Version:1.3.3