【龙网转发】【冯小刚2023新众星贺岁喜剧】【非诚勿扰3】【WebDL-2160p.MKV】【国语】 - 龙网BT发布页 - 梦幻天堂·龙网专属BT发布页
资源名称: 【龙网转发】【冯小刚2023新众星贺岁喜剧】【非诚勿扰3】【WebDL-2160p.MKV】【国语】 [参与讨论]
发布者: 由 lwgod 发布于2024/04/02 15:38
发布联盟:
资源介绍:
海报
 
Image
 
Image
 
译  名 非诚勿扰3/征婚启事
片  名 If You Are the One III
年  代 2023
国  家 中国
类  别 喜剧/爱情/科幻
语  言 汉语普通话
字  幕 中英硬字幕
评  分 5.4/10 from 105,910 users
文件大小 4.00 GB
片  长 119 Min
导  演 冯小刚 Xiaogang Feng
主  演 葛优 You Ge
     舒淇 Qi Shu
     范伟 Wei Fan
     姚晨 Chen Yao
     李诚儒 Chengru Li
     关晓彤 Xiaotong Guan
     虞书欣 Shuxin Yu
     岳云鹏 Yunpeng Yue
     常远 Yuan Chang
     邬逸聪 Yicong Wu
     易小星 Joshua
 
简介
 
  2031年,已经步入老年的秦奋(葛优 饰)不再折腾,独自守在他和笑笑(舒淇 饰)小家中,等待着十年前突然离开自己投身环保事业的妻子倦鸟归林。曾经的旧友老范(范伟 饰)抓住人工智能的风口商机,创立了一家仿真人的高科技公司。为了排解生活中的寂寞,秦奋订做了和笑笑一模一样的仿真人。仿真人笑笑对主人高度服从,体贴入微,虽然让秦奋倍感喜悦,可是他终究思念那个让他深深爱恋却又颇感畏惧的真正妻子。就在他再次找到老范的公司,期望为仿真人修改性格的那一天,笑笑意外归来。当她得知一个仿真人正在陪伴着秦奋,她的脑中闪过了一个念头。
 
  不久之后,两个笑笑接连走入秦奋的家门……
 
Video
Format                         : HEVC
Format/Info                    : High Efficiency Video Coding
Format profile                 : Main @ L5.1 @ Main
Codec ID                       : V_MPEGH/ISO/HEVC
Duration                       : 1 h 59 min
Bit rate                       : 4 547 kb/s
Width                          : 3 840 pixels
Height                         : 1 608 pixels
Display aspect ratio           : 2.40:1
Frame rate mode                : Variable
Frame rate                     : 59.869 FPS
Original frame rate            : 60.000 FPS
Color space                    : YUV
Chroma subsampling             : 4:2:0
Bit depth                      : 8 bits
Bits/(Pixel*Frame)             : 0.012
Stream size                    : 3.79 GiB (95%)
 
Audio
Format                         : E-AC-3
Format/Info                    : Enhanced AC-3
Commercial name                : Dolby Digital Plus
Codec ID                       : A_EAC3
Duration                       : 1 h 59 min
Bit rate mode                  : Constant
Bit rate                       : 256 kb/s
Channel(s)                     : 6 channels
Channel layout                 : L R C LFE Ls Rs
Sampling rate                  : 48.0 kHz
Frame rate                     : 31.250 FPS (1536 SPF)
Compression mode               : Lossy
Stream size                    : 219 MiB (5%)
Service kind                   : Complete Main
 
截图
 
Image
下载资源: Download 开始下载
文件总大小: 4.0GB (种子:3,下载:7,完成:153)    
包含文件: URL 梦幻天堂·龙网(www.LWgod.org).非诚勿扰3.征婚启事/本片海报、简介、截图等双击这里进入发布地址查看.url (198Bytes)
URL 梦幻天堂·龙网(www.LWgod.org).非诚勿扰3.征婚启事/梦幻天堂·龙网(www.LWgod.org) 质量第一 品质保证.url (176Bytes)
UNKNOWN 梦幻天堂·龙网(www.LWgod.org).非诚勿扰3.征婚启事/梦幻天堂·龙网(www.LWgod.org) 超多爆爽资源下载目录.rtf (2.1KB)
MKV 梦幻天堂·龙网(www.LWgod.org).非诚勿扰3.征婚启事/梦幻天堂·龙网(www.LWgod.org).非诚勿扰3.征婚启事.mkv (4.0GB)
UNKNOWN 梦幻天堂·龙网(www.LWgod.org).非诚勿扰3.征婚启事/梦幻天堂·龙网最新网址 www.LWgod.org 请重新收藏.rtf (890Bytes)
Powered by BTMaster.cn Version:1.3.3