【龙网转发】【中国2022票房爆笑】【这个杀手不太冷静】【WebDL-2160p.MKV】【国语】 - 龙网BT发布页 - 梦幻天堂·龙网专属BT发布页
资源名称: 【龙网转发】【中国2022票房爆笑】【这个杀手不太冷静】【WebDL-2160p.MKV】【国语】 [参与讨论]
发布者: 由 lwgod 发布于2022/04/21 20:33
发布联盟:
资源介绍:
海报:
 
Image
 
Image
 
译  名 这个杀手不太冷静
片  名 Too Cool To Kill
年  代 2022
国  家 中国
类  别 喜剧
语  言 汉语普通话
字  幕 中英硬字幕
评  分 6.3/10 from 395,368 users
文件大小 4.64 GB
片  长 109 Min
导  演 邢文雄 Wenxiong Xing
主  演 马丽 Li Ma
     魏翔 Xiang Wei
     陈明昊 Minghao Chen
     周大勇 Dayong Zhou
     黄才伦 Cailun Huang
     艾伦 Allen
     高海宝 Haibao Gao
     韩笑 Xiao Han
     孙贵权 Guiquan Sun
     许猛 Meng Xu
     全容杓 Rongbiao Quan
 
简介:
 
  魏成功(魏翔 饰)非常热爱表演,然而其貌不扬的他往往只能够在电影里觅得一个跑龙套的角色,可即便如此,魏成功还是无比认真的对待着自己的每一个甚至连名字都没有的角色,这股子劲头引起了当红女明星米兰(马丽 饰)的注意。
 
  米兰的弟弟米勒(黄才伦 饰)是一名电影导演,黑帮大佬哈维(陈明昊 饰)给他的电影投资了不菲的资金,哪知道亏得底裤都不剩,哈维一直爱慕着米兰,想要娶她为妻,可是米兰誓死不从。这一天,当哈维决定和姐弟两算总账之际,米兰告诉哈维自己认识他一直想要寻找的杀手卡尔(艾伦 饰)。哈维给了米兰一天的时间,让他把卡尔带到自己面前,实际上并不认识卡尔的米兰决定让魏成功来扮演这位冷酷的杀手。
 
Video
Format                         : HEVC
Format/Info                    : High Efficiency Video Coding
Format profile                 : Main 10 @ L5.1 @ Main
Codec ID                       : V_MPEGH/ISO/HEVC
Duration                       : 1 h 49 min
Bit rate                       : 5 645 kb/s
Width                          : 3 840 pixels
Height                         : 1 608 pixels
Display aspect ratio           : 2.40:1
Frame rate mode                : Constant
Frame rate                     : 60.000 FPS
Color space                    : YUV
Chroma subsampling             : 4:2:0
Bit depth                      : 10 bits
Bits/(Pixel*Frame)             : 0.015
Stream size                    : 4.30 GiB (93%)
Color range                    : Limited
Color primaries                : BT.709
Transfer characteristics       : BT.709
Matrix coefficients            : BT.709
 
Audio
Format                         : E-AC-3 JOC
Format/Info                    : Enhanced AC-3 with Joint Object Coding
Commercial name                : Dolby Digital Plus with Dolby Atmos
Codec ID                       : A_EAC3
Duration                       : 1 h 49 min
Bit rate mode                  : Constant
Bit rate                       : 448 kb/s
Channel(s)                     : 6 channels
Channel layout                 : L R C LFE Ls Rs
Sampling rate                  : 48.0 kHz
Frame rate                     : 31.250 FPS (1536 SPF)
Compression mode               : Lossy
Stream size                    : 350 MiB (7%)
Service kind                   : Complete Main
Complexity index               : 16
Number of dynamic objects      : 15
Bed channel count              : 1 channel
Bed channel configuration      : LFE
截图:
 
Image
下载资源: Download 开始下载
文件总大小: 4.6GB (种子:2,下载:5,完成:528)    
包含文件: URL 梦幻天堂·龙网(www.LWgod.org).这个杀手不太冷静/本片海报、简介、截图等双击这里进入发布地址查看.url (198Bytes)
URL 梦幻天堂·龙网(www.LWgod.org).这个杀手不太冷静/梦幻天堂·龙网(www.LWgod.org) 质量第一 品质保证.url (176Bytes)
UNKNOWN 梦幻天堂·龙网(www.LWgod.org).这个杀手不太冷静/梦幻天堂·龙网(www.LWgod.org) 超多爆爽资源下载目录.rtf (2.1KB)
MKV 梦幻天堂·龙网(www.LWgod.org).这个杀手不太冷静/梦幻天堂·龙网(www.LWgod.org).这个杀手不太冷静.mkv (4.6GB)
UNKNOWN 梦幻天堂·龙网(www.LWgod.org).这个杀手不太冷静/梦幻天堂·龙网最新网址 www.LWgod.org 请重新收藏.rtf (890Bytes)
Powered by BTMaster.cn Version:1.3.3