【龙网转发】【美国2023最新视效动作科幻】【AI创世者】【WebDL-1080p.MKV】【中字】 - 龙网BT发布页 - 梦幻天堂·龙网专属BT发布页
资源名称: 【龙网转发】【美国2023最新视效动作科幻】【AI创世者】【WebDL-1080p.MKV】【中字】 [参与讨论]
发布者: 由 lwgod 发布于2023/11/15 15:24
发布联盟:
资源介绍:
海报
 
Image
 
Image
 
译  名 AI创世者/A.I.创世者(台)/造物主/真爱
片  名 The Creator
年  代 2023
国  家 美国
类  别 动作/科幻/惊悚
语  言 英语
字  幕 中简/中繁/英文
评  分 6.3/10 from 2,600 users
文件大小 7.94 GB
片  长 133 Min
导  演 加里斯·爱德华斯 Gareth Edwards
主  演 约翰·大卫·华盛顿 John David Washington
     马德琳·尤娜·沃伊尔斯 Madeleine Yuna Voyles
     嘉玛·陈 Gemma Chan
     艾莉森·珍妮 Allison Janney
     渡边谦 Ken Watanabe
     斯特吉尔·辛普森 Sturgill Simpson
     阿默·查达·帕特尔 Amer Chadha-Patel
     马克·门查卡 Marc Menchaca
     罗比·坦恩 Robbie Tann
     拉尔夫·伊内森 Ralph Ineson
     迈克尔·埃斯佩尔 Michael Esper
 
简介
 
  在人类与AI如火如荼的未来战争中,精明干练的前特种部队探员约书亚(约翰·大卫·华盛顿 饰),在摆脱不了妻子失踪已久的悲伤之际,又被招募执行刺杀“AI创世者”的关键任务,势在阻止AI歼灭人类并终结战争的秘密武器。约书亚带领菁英小组深入AI领域的危险中心,却发现他必须摧毁的终极致命武器,竟是个拥有纯真孩童外表的AI……
 
Video
Format                         : AVC
Format/Info                    : Advanced Video Codec
Format profile                 : High@L4
Format settings                : CABAC / 4 Ref Frames
Format settings, CABAC         : Yes
Format settings, Reference fra : 4 frames
Codec ID                       : V_MPEG4/ISO/AVC
Duration                       : 2 h 13 min
Bit rate                       : 8 000 kb/s
Width                          : 1 920 pixels
Height                         : 1 080 pixels
Display aspect ratio           : 16:9
Frame rate mode                : Constant
Frame rate                     : 24.000 FPS
Color space                    : YUV
Chroma subsampling             : 4:2:0
Bit depth                      : 8 bits
Scan type                      : Progressive
Bits/(Pixel*Frame)             : 0.161
Stream size                    : 7.22 GiB (91%)
Color range                    : Limited
Color primaries                : BT.709
Transfer characteristics       : BT.709
Matrix coefficients            : BT.709
 
Audio
Format                         : E-AC-3 JOC
Format/Info                    : Enhanced AC-3 with Joint Object Coding
Commercial name                : Dolby Digital Plus with Dolby Atmos
Codec ID                       : A_EAC3
Duration                       : 2 h 13 min
Bit rate mode                  : Constant
Bit rate                       : 768 kb/s
Channel(s)                     : 6 channels
Channel layout                 : L R C LFE Ls Rs
Sampling rate                  : 48.0 kHz
Frame rate                     : 31.250 FPS (1536 SPF)
Compression mode               : Lossy
Stream size                    : 733 MiB (9%)
Language                       : English
Service kind                   : Complete Main
 
截图
 
Image
下载资源: Download 开始下载
文件总大小: 7.9GB (种子:0,下载:0,完成:878)    
包含文件: URL 梦幻天堂·龙网(www.LWgod.org).AI创世者/本片海报、简介、截图等双击这里进入发布地址查看.url (198Bytes)
URL 梦幻天堂·龙网(www.LWgod.org).AI创世者/梦幻天堂·龙网(www.LWgod.org) 质量第一 品质保证.url (176Bytes)
UNKNOWN 梦幻天堂·龙网(www.LWgod.org).AI创世者/梦幻天堂·龙网(www.LWgod.org) 超多爆爽资源下载目录.rtf (2.1KB)
MKV 梦幻天堂·龙网(www.LWgod.org).AI创世者/梦幻天堂·龙网(www.LWgod.org).AI创世者.mkv (7.9GB)
UNKNOWN 梦幻天堂·龙网(www.LWgod.org).AI创世者/梦幻天堂·龙网最新网址 www.LWgod.org 请重新收藏.rtf (890Bytes)
Powered by BTMaster.cn Version:1.3.3