【龙网转发】【韩寒导演2022众星喜剧爱情大片】【四海】【WebDL-1080p.MKV】【国语】 - 龙网BT发布页 - 梦幻天堂·龙网专属BT发布页
资源名称: 【龙网转发】【韩寒导演2022众星喜剧爱情大片】【四海】【WebDL-1080p.MKV】【国语】 [参与讨论]
发布者: 由 lwgod 发布于2022/05/01 17:40
发布联盟:
资源介绍:
海报
 
Image
 
Image
 
译  名 四海/年轻的故事
片  名 Only Fools Rush In
年  代 2022
国  家 中国
类  别 喜剧/爱情/剧情
语  言 汉语普通话
字  幕 中英硬字幕
评  分 5.5/10 from 148,856 users
文件大小 4.83 GB
片  长 124 Min
导  演 韩寒 Han Han
主  演 刘昊然 Haoran Liu
     刘浩存 Haocun Liu
     沈腾 Teng Shen
     尹正 Zheng Yin
     乔杉 Shan Qiao
     周奇 Qi Zhou
     张宥浩 Youhao Zhang
     冯绍峰 Shaofeng Feng
     黄晓明 Xiaoming Huang
     王彦霖 Yanlin Wang
     陈小春 Jordan Chan
 
简介
 
  在码头做摩托车特技表演顺便拉客的年轻人吴仁耀(刘昊然 饰),他多年不见的浪荡父亲吴仁腾(沈腾 饰);梦想大城市生活的餐馆服务员周欢颂和他浮夸真诚的哥哥周欢歌。一支从没有赢过一场比赛的“不败传说”车队频频出战,一群可笑又可爱的小人物命运交织。阿耀和欢颂都立志活成自己亲人的反面,想彼此取暖,彼此独立,却又总不在一个频道上。世事无常,他们不得不背井离乡,迎接一场未知旅途,阿耀的一身技能竟会用在一个自己都意想不到的场合,他的亲情友情和爱情最终又将会是如何……
 
Video
Format                         : AVC
Format/Info                    : Advanced Video Codec
Format profile                 : High @ L5
Format settings                : CABAC / 6 Ref Frames
Format settings, CABAC         : Yes
Format settings, Reference fra : 6 frames
Codec ID                       : V_MPEG4/ISO/AVC
Duration                       : 2 h 4 min
Bit rate                       : 5 242 kb/s
Width                          : 1 920 pixels
Height                         : 808 pixels
Display aspect ratio           : 2.40:1
Frame rate mode                : Constant
Frame rate                     : 25.000 FPS
Color space                    : YUV
Chroma subsampling             : 4:2:0
Bit depth                      : 8 bits
Scan type                      : Progressive
Bits/(Pixel*Frame)             : 0.135
Stream size                    : 4.56 GiB (94%)
Color range                    : Limited
Color primaries                : BT.709
Transfer characteristics       : BT.709
Matrix coefficients            : BT.709
 
Audio
Format                         : AAC LC
Format/Info                    : Advanced Audio Codec Low Complexity
Codec ID                       : A_AAC-2
Duration                       : 2 h 4 min
Bit rate                       : 320 kb/s
Channel(s)                     : 2 channels
Channel layout                 : L R
Sampling rate                  : 48.0 kHz
Frame rate                     : 46.875 FPS (1024 SPF)
Compression mode               : Lossy
Stream size                    : 285 MiB (6%)
 
截图
 
Image
下载资源: Download 开始下载
文件总大小: 4.8GB (种子:18,下载:10,完成:1123)    
包含文件: URL 梦幻天堂·龙网(www.LWgod.org).四海.年轻的故事/本片海报、简介、截图等双击这里进入发布地址查看.url (198Bytes)
URL 梦幻天堂·龙网(www.LWgod.org).四海.年轻的故事/梦幻天堂·龙网(www.LWgod.org) 质量第一 品质保证.url (176Bytes)
UNKNOWN 梦幻天堂·龙网(www.LWgod.org).四海.年轻的故事/梦幻天堂·龙网(www.LWgod.org) 超多爆爽资源下载目录.rtf (2.1KB)
MKV 梦幻天堂·龙网(www.LWgod.org).四海.年轻的故事/梦幻天堂·龙网(www.LWgod.org).四海.年轻的故事.mkv (4.8GB)
UNKNOWN 梦幻天堂·龙网(www.LWgod.org).四海.年轻的故事/梦幻天堂·龙网最新网址 www.LWgod.org 请重新收藏.rtf (890Bytes)
Powered by BTMaster.cn Version:1.3.3