【龙网转发】【林家栋2021限制级高分悬疑犯罪】【智齿】【WebDL-1080p.MKV】【中字】 - 龙网BT发布页 - 梦幻天堂·龙网专属BT发布页
资源名称: 【龙网转发】【林家栋2021限制级高分悬疑犯罪】【智齿】【WebDL-1080p.MKV】【中字】 [参与讨论]
发布者: 由 lwgod 发布于2022/06/15 19:56
发布联盟:
资源介绍:
海报
 
Image
 
Image
 
译  名 智齿
片  名 Limbo
年  代 2021
国  家 中国香港/中国
类  别 悬疑/犯罪
语  言 粤语
字  幕 中文简繁
评  分 7.2/10 from 32,459 users
文件大小 5.96 GB
片  长 118 Min
导  演 郑保瑞 Pou-Soi Cheang
主  演 林家栋 Ka Tung Lam
     刘雅瑟 Yase Liu
     李淳 Mason Lee
     池内博之 Hiroyuki Ikeuchi
     廖子妤 Fish Liew
     吴岱融 Hugo Ng
     沈震轩 Sammy Sum
     陈汉娜 Hanna Chan
     苏宸褕 Kumer So
     林晓彤 Iris Lam
 
简介
 
  从学堂毕业的任凯,因一宗连环凶杀案,与刚复职的展哥开始搭档。案子破不了反倒引发连串事故。展哥重遇杀妻儿的街童王桃,被激发的恨意一发不可收拾;任凯大意失枪,误被凶手所获。凶手潜伏在城市之中,危机逐步逼近……
 
  两位女性和一位身份不明的街头女孩相继被杀,在公众压力下,警署重启老侦探展哥(林家栋 饰)追凶,和他搭档的则是刚从警校毕业的的新人任凯(李淳 饰)。调查中,展哥再次碰到到让他失去孩子、妻子成为植物人的车祸肇事女孩王桃(刘雅瑟 饰),痛苦往事令他无法自控,夜幕下我们看到他一路飞车狂堵女孩,又在后者以赎罪心态前来道歉和配合调查时,毫不留情地重拳暴打,并在调查中刻意将王桃置身于歹徒威胁下。
 
  影片由两条叙事线交叉而开始并进,强烈的影像风格和美学设计,足以让我们看到这部作品的野心。黑白画面隐去许多不必要的信息,强化了阴魅科幻的氛围,比彩色画面更有优势。高低远近的建筑,城市空间感十足,众多象征元素和人物设计,不同的人也许会看到不同的指意和表达。整部影片的警察作为正义的维护者,在片中的形象却模糊不清。其中演绎这个有地狱般经历的瘦弱女孩,可以想象演员需要付出的巨大能量和坚持,近年来在影视作品中已经有不俗表现的刘雅瑟,片中令人惊喜。
 
Video
Format                         : AVC
Format/Info                    : Advanced Video Codec
Format profile                 : High@L4
Format settings                : CABAC / 4 Ref Frames
Format settings, CABAC         : Yes
Format settings, Reference fra : 4 frames
Codec ID                       : V_MPEG4/ISO/AVC
Duration                       : 1 h 58 min
Bit rate mode                  : Variable
Bit rate                       : 6 953 kb/s
Maximum bit rate               : 12.7 Mb/s
Width                          : 1 920 pixels
Height                         : 1 080 pixels
Display aspect ratio           : 16:9
Frame rate mode                : Constant
Frame rate                     : 24.000 FPS
Color space                    : YUV
Chroma subsampling             : 4:2:0
Bit depth                      : 8 bits
Scan type                      : Progressive
Bits/(Pixel*Frame)             : 0.140
Stream size                    : 5.74 GiB (96%)
Color range                    : Limited
Color primaries                : BT.709
Transfer characteristics       : BT.709
Matrix coefficients            : BT.709
 
Audio
Format                         : E-AC-3
Format/Info                    : Enhanced AC-3
Commercial name                : Dolby Digital Plus
Codec ID                       : A_EAC3
Duration                       : 1 h 58 min
Bit rate mode                  : Constant
Bit rate                       : 256 kb/s
Channel(s)                     : 6 channels
Channel layout                 : L R C LFE Ls Rs
Sampling rate                  : 48.0 kHz
Frame rate                     : 31.250 FPS (1536 SPF)
Compression mode               : Lossy
Stream size                    : 217 MiB (4%)
Service kind                   : Complete Main
 
截图
 
Image
下载资源: Download 开始下载
文件总大小: 6.0GB (种子:8,下载:7,完成:516)    
包含文件: URL 梦幻天堂·龙网(www.LWgod.org).智齿.香港2021林家栋新片/本片海报、简介、截图等双击这里进入发布地址查看.url (198Bytes)
URL 梦幻天堂·龙网(www.LWgod.org).智齿.香港2021林家栋新片/梦幻天堂·龙网(www.LWgod.org) 质量第一 品质保证.url (176Bytes)
UNKNOWN 梦幻天堂·龙网(www.LWgod.org).智齿.香港2021林家栋新片/梦幻天堂·龙网(www.LWgod.org) 超多爆爽资源下载目录.rtf (2.1KB)
MKV 梦幻天堂·龙网(www.LWgod.org).智齿.香港2021林家栋新片/梦幻天堂·龙网(www.LWgod.org).智齿.香港2021林家栋新片.mkv (6.0GB)
UNKNOWN 梦幻天堂·龙网(www.LWgod.org).智齿.香港2021林家栋新片/梦幻天堂·龙网最新网址 www.LWgod.org 请重新收藏.rtf (890Bytes)
Powered by BTMaster.cn Version:1.3.3