【龙网转发】【中2023票房喜剧爱情】【前任4:英年早婚】【WebDL-2160p.MKV】【国语】 - 龙网BT发布页 - 梦幻天堂·龙网专属BT发布页
资源名称: 【龙网转发】【中2023票房喜剧爱情】【前任4:英年早婚】【WebDL-2160p.MKV】【国语】 [参与讨论]
发布者: 由 lwgod 发布于2023/12/08 19:23
发布联盟:
资源介绍:
海报
 
Image
 
Image
 
译  名 前任4:英年早婚/前任4/分手清单/前任:分手清单/前任攻略4
片  名 The Ex-Files 4: Marriage Plan
年  代 2023
国  家 中国
类  别 喜剧/爱情
语  言 汉语普通话
字  幕 中英硬字幕
评  分 5.9/10 from 73,107 users
文件大小 3.33 GB
片  长 129 Min
导  演 田羽生 Yusheng Tian
主  演 韩庚 Han geng
     郑恺 Kai Zheng
     于文文 Kelly Yu
     刘雅瑟 Yase Liu
     曾梦雪 Mengxue Zeng
     张天爱 Tian'ai Zhang
     朱颜曼滋 Yanmanzi Zhu
     罗米 Mi Luo
     冯铭潮 Mingchao Feng
     药一樍 Yize Yao
     于惠 Hui Yu
 
简介
 
  孟云(韩庚 饰)和余飞(郑恺 饰)这对难兄难弟,在历经情场的洗礼之后,终于来到了谈婚论嫁的年纪。正在经历“分手后遗症”的孟云,面对家人的催促,带着“为什么要结婚”的疑问,开始寻找真爱;而余飞和女友丁点(曾梦雪 饰)为了应对结婚后即将产生的各种情况,自创了“结婚冷静期”,将婚后生活提前预演。两兄弟开启一场全新的爱情挑战……
 
Video
Format                         : HEVC
Format/Info                    : High Efficiency Video Coding
Format profile                 : Main @ L5.1 @ Main
Codec ID                       : V_MPEGH/ISO/HEVC
Duration                       : 2 h 8 min
Bit rate                       : 3 514 kb/s
Width                          : 3 840 pixels
Height                         : 1 608 pixels
Display aspect ratio           : 2.40:1
Frame rate mode                : Constant
Frame rate                     : 60.000 FPS
Color space                    : YUV
Chroma subsampling             : 4:2:0
Bit depth                      : 8 bits
Bits/(Pixel*Frame)             : 0.009
Stream size                    : 3.16 GiB (95%)
Color range                    : Limited
Color primaries                : BT.709
Transfer characteristics       : BT.709
Matrix coefficients            : BT.709
 
Audio
Format                         : AAC LC
Format/Info                    : Advanced Audio Codec Low Complexity
Codec ID                       : A_AAC-2
Duration                       : 2 h 8 min
Bit rate                       : 192 kb/s
Channel(s)                     : 2 channels
Channel layout                 : L R
Sampling rate                  : 44.1 kHz
Frame rate                     : 43.066 FPS (1024 SPF)
Compression mode               : Lossy
Stream size                    : 177 MiB (5%)
 
截图
 
Image
下载资源: Download 开始下载
文件总大小: 3.3GB (种子:1,下载:0,完成:114)    
包含文件: URL 梦幻天堂·龙网(www.LWgod.org).前任4:英年早婚/本片海报、简介、截图等双击这里进入发布地址查看.url (198Bytes)
URL 梦幻天堂·龙网(www.LWgod.org).前任4:英年早婚/梦幻天堂·龙网(www.LWgod.org) 质量第一 品质保证.url (176Bytes)
UNKNOWN 梦幻天堂·龙网(www.LWgod.org).前任4:英年早婚/梦幻天堂·龙网(www.LWgod.org) 超多爆爽资源下载目录.rtf (2.1KB)
MKV 梦幻天堂·龙网(www.LWgod.org).前任4:英年早婚/梦幻天堂·龙网(www.LWgod.org).前任4:英年早婚.mkv (3.3GB)
UNKNOWN 梦幻天堂·龙网(www.LWgod.org).前任4:英年早婚/梦幻天堂·龙网最新网址 www.LWgod.org 请重新收藏.rtf (890Bytes)
UNKNOWN 梦幻天堂·龙网(www.LWgod.org).前任4:英年早婚/龙网种子即将停止外转,下载龙网资源请至龙网原创区.rtf (807Bytes)
Powered by BTMaster.cn Version:1.3.3