【龙网转发】【2023】【93国际列车大劫案:莫斯科行动】【WebDL-2160p.MKV】【国语】 - 龙网BT发布页 - 梦幻天堂·龙网专属BT发布页
资源名称: 【龙网转发】【2023】【93国际列车大劫案:莫斯科行动】【WebDL-2160p.MKV】【国语】 [参与讨论]
发布者: 由 lwgod 发布于2023/11/24 20:13
发布联盟:
资源介绍:
海报
 
Image
 
Image
 
译  名 93国际列车大劫案:莫斯科行动/莫斯科行动/莫斯科任务/莫斯科大劫案
片  名 Moscow Mission
年  代 2023
国  家 中国
类  别 动作/犯罪/剧情
语  言 汉语普通话/俄语/粤语
字  幕 中英硬字幕
评  分 6.6/10 from 119,207 users
文件大小 3.70 GB
片  长 128 Min
导  演 邱礼涛 Herman Yau
主  演 张涵予 Hanyu Zhang
     刘德华 Andy Lau
     黄轩 Xuan Huang
     文咏珊 Janice Man
     谷嘉诚 Jason Gu
     赵炳锐 Mingyue Zhao
     白那日苏 Narisu Bai
     张本煜 Benyu Zhang
     尚语贤 Yuxian Shang
     徐小飒 Xiaosa Xu
     韩秋池 Qiuchi Han
 
简介
 
  20世纪90年代初,东西方冷战以苏联解体落下帷幕。新建立的俄罗斯承前朝之弊,经济全面崩溃。而产业结构极度不平衡,又导致该国轻工业产品处于极度匮乏的局面。值此纷乱之际,改革开放之初的中国,一群头脑灵光的国人摇身一变化作“国际倒爷”。他们乘坐从北京开往莫斯科的K3次国际专列,带着中国生产的商品开启了淘金之旅。然而,对于他们来说,这很有可能是一场死亡之旅。以苗青山(黄轩 饰)为首的悍匪集团同样登上这趟列车,对乘客实施了惨无人道的抢劫和强暴,气焰极度嚣张。中国警察崔振海(张涵予 饰)临危受命,乔装打扮带领公安小队登上刀光血影的K3次列车……
 
  影片根据中国第一桩跨境追捕真实案件改编。
 
Video
Format                         : HEVC
Format/Info                    : High Efficiency Video Coding
Format profile                 : Main@L5@Main
Codec ID                       : V_MPEGH/ISO/HEVC
Duration                       : 2 h 8 min
Bit rate                       : 3 875 kb/s
Width                          : 3 840 pixels
Height                         : 1 616 pixels
Display aspect ratio           : 2.40:1
Frame rate mode                : Constant
Frame rate                     : 24.000 FPS
Color space                    : YUV
Chroma subsampling             : 4:2:0
Bit depth                      : 8 bits
Bits/(Pixel*Frame)             : 0.026
Stream size                    : 3.48 GiB (94%)
 
Audio
Format                         : E-AC-3
Format/Info                    : Enhanced AC-3
Commercial name                : Dolby Digital Plus
Codec ID                       : A_EAC3
Duration                       : 2 h 8 min
Bit rate mode                  : Constant
Bit rate                       : 256 kb/s
Channel(s)                     : 6 channels
Channel layout                 : L R C LFE Ls Rs
Sampling rate                  : 48.0 kHz
Frame rate                     : 31.250 FPS (1536 SPF)
Compression mode               : Lossy
Stream size                    : 235 MiB (6%)
Language                       : Chinese
Service kind                   : Complete Main
 
截图
 
Image
下载资源: Download 开始下载
文件总大小: 3.7GB (种子:2,下载:8,完成:215)    
包含文件: UNKNOWN 姊﹀够澶╁爞路榫欑綉(www.LWgod.org).93鍥介檯鍒楄溅澶у姭妗堬細鑾 (3.7GB)
UNKNOWN 姊﹀够澶╁爞路榫欑綉(www.LWgod.org).93鍥介檯鍒楄溅澶у姭妗堬細鑾 (176Bytes)
UNKNOWN 姊﹀够澶╁爞路榫欑綉(www.LWgod.org).93鍥介檯鍒楄溅澶у姭妗堬細鑾 (2.1KB)
UNKNOWN 姊﹀够澶╁爞路榫欑綉(www.LWgod.org).93鍥介檯鍒楄溅澶у姭妗堬細鑾 (198Bytes)
UNKNOWN 姊﹀够澶╁爞路榫欑綉(www.LWgod.org).93鍥介檯鍒楄溅澶у姭妗堬細鑾 (890Bytes)
UNKNOWN 姊﹀够澶╁爞路榫欑綉(www.LWgod.org).93鍥介檯鍒楄溅澶у姭妗堬細鑾 (807Bytes)
Powered by BTMaster.cn Version:1.3.3