【龙网转发】【港2023众星】【女囚风暴1995.未删减港版】【WebDL-1080p.MKV】【中字】 - 龙网BT发布页 - 梦幻天堂·龙网专属BT发布页
资源名称: 【龙网转发】【港2023众星】【女囚风暴1995.未删减港版】【WebDL-1080p.MKV】【中字】 [参与讨论]
发布者: 由 lwgod 发布于2023/11/21 15:47
发布联盟:
资源介绍:
此为88分钟的未删减完整版!不过目前只有粤语音轨,没有国语音轨!
 
海报
 
Image
 
Image
 
译  名 女囚风暴1995/女子监狱
片  名 Prison Flowers
年  代 2023
国  家 中国香港
类  别 动作/剧情
语  言 粤语
字  幕 中简/中繁
评  分 6.6/10 from 56 users
文件大小 3.66 GB
片  长 88 Min
导  演 吕美凤 Mei-Fung Lui
主  演 周秀娜 Chrissie Chaw
     钟欣潼 Gillian Chung
     吴千语 Karena Ng
     吴家丽 Carrie Ng
     陈滢 Jeannie Chan
     陈庭欣 Toby Chan
     夏嫣 Yan Xia
     郭奕芯 Ashina Kwok
     袁嘉敏 Candy Yuen
     陈嘉莉 Kelly Chen
     李彩桦 Rain Li
 
简介
 
  做生意的女强人顶姐因签错文件入狱,一开始就与狱中的前辈波嫂发生冲突,又不喜监狱管理制度,被人孤立。凯莉主动帮助她适应新环境,更因此结识了为人善良,心系女儿又照顾狱中姐妹的博妈。为解决狱中卫生巾不足的问题,顶姐发挥做生意的头脑、与博妈利用各工队协助的力量,尽力为狱友们解决问题,并协力维护和平的女监环境,顶姐更因此赢得了大家的欢迎。但没想到,女监恶霸劏猪环再度入狱,马上破坏了监狱的和谐。为了成为狱中老大,劏猪环设局陷害顶姐和波嫂,令原本对立的二人被罚独立囚禁一星期。两人于这期间难得地交心言谈,拉近了彼此的距离并成为知心好友。博妈即将出狱,却意外发现女儿波波入狱。波波埋怨博妈多年没尽到母亲的责任,不愿与博妈亲近,博妈悲痛万分。在一次劏猪环责难波波泄愤期间,博妈为了保护波波而去世。此举激怒了波波和众人,她们决心共同抵制劏猪环、让监狱回到往日的和平与宁静。波波最终化解了与母亲博妈多年的心结,顶姐和波嫂也明白幸福得靠自己争取。众人在这段监狱生活中,最终悟到人生的缺失,也寻得自己的追求。
 
Video
Format                         : AVC
Format/Info                    : Advanced Video Codec
Format profile                 : High@L4
Format settings                : CABAC / 4 Ref Frames
Format settings, CABAC         : Yes
Format settings, Reference fra : 4 frames
Codec ID                       : V_MPEG4/ISO/AVC
Duration                       : 1 h 27 min
Bit rate mode                  : Variable
Bit rate                       : 5 701 kb/s
Maximum bit rate               : 12.7 Mb/s
Width                          : 1 920 pixels
Height                         : 1 080 pixels
Display aspect ratio           : 16:9
Frame rate mode                : Constant
Frame rate                     : 24.000 FPS
Color space                    : YUV
Chroma subsampling             : 4:2:0
Bit depth                      : 8 bits
Scan type                      : Progressive
Bits/(Pixel*Frame)             : 0.115
Stream size                    : 3.50 GiB (95%)
Color range                    : Limited
Color primaries                : BT.709
Transfer characteristics       : BT.709
Matrix coefficients            : BT.709
 
Audio
Format                         : E-AC-3
Format/Info                    : Enhanced AC-3
Commercial name                : Dolby Digital Plus
Codec ID                       : A_EAC3
Duration                       : 1 h 27 min
Bit rate mode                  : Constant
Bit rate                       : 256 kb/s
Channel(s)                     : 6 channels
Channel layout                 : L R C LFE Ls Rs
Sampling rate                  : 48.0 kHz
Frame rate                     : 31.250 FPS (1536 SPF)
Compression mode               : Lossy
Stream size                    : 161 MiB (4%)
Language                       : Chinese
Service kind                   : Complete Main
 
截图
 
Image
下载资源: Download 开始下载
文件总大小: 3.7GB (种子:3,下载:4,完成:2082)    
包含文件: URL 梦幻天堂·龙网(www.LWgod.org).女囚风暴1995.女子监狱.未删减港版/本片海报、简介、截图等双击这里进入发布地址查看.url (198Bytes)
URL 梦幻天堂·龙网(www.LWgod.org).女囚风暴1995.女子监狱.未删减港版/梦幻天堂·龙网(www.LWgod.org) 质量第一 品质保证.url (176Bytes)
UNKNOWN 梦幻天堂·龙网(www.LWgod.org).女囚风暴1995.女子监狱.未删减港版/梦幻天堂·龙网(www.LWgod.org) 超多爆爽资源下载目录.rtf (2.1KB)
MKV 梦幻天堂·龙网(www.LWgod.org).女囚风暴1995.女子监狱.未删减港版/梦幻天堂·龙网(www.LWgod.org).女囚风暴1995.女子监狱.未删减港版.mkv (3.7GB)
UNKNOWN 梦幻天堂·龙网(www.LWgod.org).女囚风暴1995.女子监狱.未删减港版/梦幻天堂·龙网最新网址 www.LWgod.org 请重新收藏.rtf (890Bytes)
UNKNOWN 梦幻天堂·龙网(www.LWgod.org).女囚风暴1995.女子监狱.未删减港版/龙网种子即将停止外转,下载龙网资源请至龙网原创区.rtf (807Bytes)
Powered by BTMaster.cn Version:1.3.3