【龙网转发】【印度2022超火爆动作超燃必看神作】【RRR】【WebDL-1080p.MKV】【中字】 - 龙网BT发布页 - 梦幻天堂·龙网专属BT发布页
资源名称: 【龙网转发】【印度2022超火爆动作超燃必看神作】【RRR】【WebDL-1080p.MKV】【中字】 [参与讨论]
发布者: 由 lwgod 发布于2022/06/07 22:29
发布联盟:
资源介绍:
海报
 
Image
 
Image
 
译  名 RRR/双雄起义(台)
片  名 Rise Roar Revolt
年  代 2022
国  家 印度
类  别 动作/剧情
语  言 泰卢固语/印地语/泰米尔语/马拉雅拉姆语/卡纳达语
字  幕 中简/中繁/英文
评  分 8.1/10 from 73,919 users
文件大小 7.97 GB
片  长 185 Min
导  演 S·S·拉贾穆里 S.S. Rajamouli
主  演 小老虎 Junior N.T.R.
     拉姆·查兰·特哈 Ram Charan Teja
     阿贾耶·德乌干 Ajay Devgan
     阿莉雅·布哈特 Alia Bhatt
     施芮娅·萨兰 Shriya Saran
     雷·史蒂文森 Ray Stevenson
     艾莉森·杜迪 Alison Doody
     Makrand Deshpande
     马克·班宁顿 Mark Bennington
     Ahmareen Anjum
     爱德华·布海克 Eduard Buhac
 
简介
 
  1920年,英国总督斯科特和他的妻子凯瑟琳访问阿迪拉巴德的一个部落,并强行带走了部落里歌唱天赋异禀的小女孩玛莉,部落的保护者比姆(小老虎 饰)为了救回玛莉,伪装成穆斯林。斯科特得知消息后,总督府的底层卫兵拉朱(拉姆·查兰·特哈 饰)为了升职也同时为了完成他父亲遗愿和他对部落承诺,主动请愿自己可以将比姆逮捕。
 
  比姆和拉朱因共同拯救了一个差点葬身火海的小男孩而巧遇,他们并不认识对方,然而两人也隐藏了自己的真实身份,相互联系,成为挚友。拉朱在一次调查中发现自己的挚友就是总督要逮捕的比姆,他一边是承载了父亲的遗愿和整个部落的承诺,一边是自己的挚友,他该如何抉择……
 
Video
Format                         : AVC
Format/Info                    : Advanced Video Codec
Format profile                 : Main@L4
Format settings                : CABAC / 3 Ref Frames
Format settings, CABAC         : Yes
Format settings, Reference fra : 3 frames
Codec ID                       : V_MPEG4/ISO/AVC
Duration                       : 3 h 5 min
Bit rate mode                  : Variable
Bit rate                       : 5 386 kb/s
Nominal bit rate               : 2 925 kb/s
Maximum bit rate               : 11.2 Mb/s
Width                          : 1 920 pixels
Height                         : 1 080 pixels
Display aspect ratio           : 16:9
Frame rate mode                : Constant
Frame rate                     : 24.000 FPS
Color space                    : YUV
Chroma subsampling             : 4:2:0
Bit depth                      : 8 bits
Scan type                      : Progressive
Bits/(Pixel*Frame)             : 0.108
Stream size                    : 6.97 GiB (87%)
 
Audio
Format                         : E-AC-3 JOC
Format/Info                    : Enhanced AC-3 with Joint Object Coding
Commercial name                : Dolby Digital Plus with Dolby Atmos
Codec ID                       : A_EAC3
Duration                       : 3 h 5 min
Bit rate mode                  : Constant
Bit rate                       : 768 kb/s
Channel(s)                     : 6 channels
Channel layout                 : L R C LFE Ls Rs
Sampling rate                  : 48.0 kHz
Frame rate                     : 31.250 FPS (1536 SPF)
Compression mode               : Lossy
Stream size                    : 1 017 MiB (12%)
Service kind                   : Complete Main
Complexity index               : 16
Number of dynamic objects      : 15
Bed channel count              : 1 channel
Bed channel configuration      : LFE
截图
 
Image
下载资源: Download 开始下载
文件总大小: 8.0GB (种子:11,下载:5,完成:509)    
包含文件: URL 梦幻天堂·龙网(www.LWgod.org).RRR.双雄起义/本片海报、简介、截图等双击这里进入发布地址查看.url (198Bytes)
URL 梦幻天堂·龙网(www.LWgod.org).RRR.双雄起义/梦幻天堂·龙网(www.LWgod.org) 质量第一 品质保证.url (176Bytes)
UNKNOWN 梦幻天堂·龙网(www.LWgod.org).RRR.双雄起义/梦幻天堂·龙网(www.LWgod.org) 超多爆爽资源下载目录.rtf (2.1KB)
MKV 梦幻天堂·龙网(www.LWgod.org).RRR.双雄起义/梦幻天堂·龙网(www.LWgod.org).RRR.双雄起义.mkv (8.0GB)
UNKNOWN 梦幻天堂·龙网(www.LWgod.org).RRR.双雄起义/梦幻天堂·龙网最新网址 www.LWgod.org 请重新收藏.rtf (890Bytes)
Powered by BTMaster.cn Version:1.3.3