【龙网转发】【于和伟郭麒麟2023喜剧剧情】【二手杰作】【WebDL-2160p.MKV】【国语】 - 龙网BT发布页 - 梦幻天堂·龙网专属BT发布页
资源名称: 【龙网转发】【于和伟郭麒麟2023喜剧剧情】【二手杰作】【WebDL-2160p.MKV】【国语】 [参与讨论]
发布者: 由 lwgod 发布于2023/12/28 16:03
发布联盟:
资源介绍:
海报
 
Image
 
Image
 
译  名 二手杰作/中国版世界上最伟大的父亲
片  名 World's Greatest Dad
年  代 2023
国  家 中国
类  别 剧情/喜剧
语  言 汉语普通话
字  幕 中文硬字幕
评  分 6.7/10 from 40,895 users
文件大小 2.83 GB
片  长 114 Min
导  演 王子昭 Zizhao Wang
主  演 于和伟 Hewei Yu
     郭麒麟 Kevin Guo
     倪虹洁 Hongjie Ni
     许恩怡 Natalie Hsu
     张子贤 Zixian Zhang
     冯雷 Lei Feng
     吕行 Xing Lu
     刘美含 Meihan Liu
     丁文博 Wenbo Ding
     周放 Fang Zhou
     安冬 Dong An
 
简介
 
  这是一个关于“儿子‘死’了,爸爸‘红’了”的荒诞故事。儿子坠楼“自杀”,父亲替儿子写了一封才华横溢的代笔遗书,竟然一夜成名……
 
  马寅波(于和伟 饰)是位高中语文老师,人到中年,哪哪不行。儿子马墨(郭麒麟 饰)坠楼“自杀”,马寅波为了面子替儿子写了一封遗书,竟然让儿子一夜爆红,而他也假借儿子的名义,实现了自己逐梦文学圈的愿望,出书、炒作、颁奖,红得不亦乐乎。但儿子的突然醒来,让整件事情的发展变得越发离谱……
 
Video
Format                         : HEVC
Format/Info                    : High Efficiency Video Coding
Format profile                 : Main@L5@Main
Codec ID                       : V_MPEGH/ISO/HEVC
Duration                       : 1 h 54 min
Bit rate                       : 3 296 kb/s
Width                          : 3 840 pixels
Height                         : 1 608 pixels
Display aspect ratio           : 2.40:1
Frame rate mode                : Constant
Frame rate                     : 24.000 FPS
Color space                    : YUV
Chroma subsampling             : 4:2:0
Bit depth                      : 8 bits
Bits/(Pixel*Frame)             : 0.022
Stream size                    : 2.63 GiB (93%)
 
Audio
Format                         : E-AC-3
Format/Info                    : Enhanced AC-3
Commercial name                : Dolby Digital Plus
Codec ID                       : A_EAC3
Duration                       : 1 h 54 min
Bit rate mode                  : Constant
Bit rate                       : 256 kb/s
Channel(s)                     : 6 channels
Channel layout                 : L R C LFE Ls Rs
Sampling rate                  : 48.0 kHz
Frame rate                     : 31.250 FPS (1536 SPF)
Compression mode               : Lossy
Stream size                    : 209 MiB (7%)
Service kind                   : Complete Main
 
截图
 
Image
下载资源: Download 开始下载
文件总大小: 2.8GB (种子:4,下载:0,完成:182)    
包含文件: URL 梦幻天堂·龙网(www.LWgod.org).二手杰作.中国版世界上最伟大的父亲/本片海报、简介、截图等双击这里进入发布地址查看.url (198Bytes)
URL 梦幻天堂·龙网(www.LWgod.org).二手杰作.中国版世界上最伟大的父亲/梦幻天堂·龙网(www.LWgod.org) 质量第一 品质保证.url (176Bytes)
UNKNOWN 梦幻天堂·龙网(www.LWgod.org).二手杰作.中国版世界上最伟大的父亲/梦幻天堂·龙网(www.LWgod.org) 超多爆爽资源下载目录.rtf (2.1KB)
MKV 梦幻天堂·龙网(www.LWgod.org).二手杰作.中国版世界上最伟大的父亲/梦幻天堂·龙网(www.LWgod.org).二手杰作.中国版世界上最伟大的父亲.mkv (2.8GB)
UNKNOWN 梦幻天堂·龙网(www.LWgod.org).二手杰作.中国版世界上最伟大的父亲/梦幻天堂·龙网最新网址 www.LWgod.org 请重新收藏.rtf (890Bytes)
UNKNOWN 梦幻天堂·龙网(www.LWgod.org).二手杰作.中国版世界上最伟大的父亲/龙网种子即将停止外转,下载龙网资源请至龙网原创区.rtf (807Bytes)
Powered by BTMaster.cn Version:1.3.3