【龙网转发】【中2022无限循环必看热剧】【开端.全15集】【WebDL-2160p.MKV】【国语】 - 龙网BT发布页 - 梦幻天堂·龙网专属BT发布页
资源名称: 【龙网转发】【中2022无限循环必看热剧】【开端.全15集】【WebDL-2160p.MKV】【国语】 [参与讨论]
发布者: 由 lwgod 发布于2022/04/28 22:12
发布联盟:
资源介绍:
海报
 
Image
 
Image
 
译  名 开端
片  名 Reset
年  代 2022
国  家 中国
类  别 剧情/科幻/惊悚
语  言 汉语普通话
字  幕 中文硬字幕
评  分 7.8/10 from 734,541 users
文件大小 10.2 GB
单集片长 45 Min
集  数 15
导  演 孙墨龙 Molong Sun
     刘洪源 Hongyuan Liu
     老算 Passsee Mu
主  演 赵今麦 Jinmai Zhao
     白敬亭 Jingting Bai
     刘奕君 Yijun Liu
     黄觉 Jue Huang
     刘丹 Dan Liu
     刘涛 Tao Liu
     宋家腾 Jiateng Song
     曾柯琅 Kelang Zeng
     张喜前 Xiqian Zhang
     马兰 Lan Ma
     焦鹏 Peng Jiao
     李感 Gan Li
     范帅琦 Shuaiqi Fan
 
简介
 
  该剧改编自祈祷君的同名小说,讲述了游戏架构师肖鹤云(白敬亭 饰)和在校大学生李诗情(赵今麦 饰)在遭遇公交车爆炸后“死而复生”,于公交车出事的时间段内不断经历时间循环,从下车自救到打破隔阂并肩作战,努力阻止爆炸、寻找真相的故事。
 
Video
Format                         : HEVC
Format/Info                    : High Efficiency Video Coding
Format profile                 : Main @ L5 @ Main
Codec ID                       : V_MPEGH/ISO/HEVC
Duration                       : 44 min 51 s
Bit rate                       : 2 797 kb/s
Width                          : 3 840 pixels
Height                         : 1 628 pixels
Display aspect ratio           : 2.35:1
Frame rate mode                : Constant
Frame rate                     : 25.000 FPS
Color space                    : YUV
Chroma subsampling             : 4:2:0
Bit depth                      : 8 bits
Bits/(Pixel*Frame)             : 0.018
Stream size                    : 897 MiB (96%)
 
Audio
Format                         : AAC LC
Format/Info                    : Advanced Audio Codec Low Complexity
Codec ID                       : A_AAC-2
Duration                       : 44 min 51 s
Bit rate                       : 125 kb/s
Channel(s)                     : 2 channels
Channel layout                 : L R
Sampling rate                  : 48.0 kHz
Frame rate                     : 46.875 FPS (1024 SPF)
Compression mode               : Lossy
Stream size                    : 40.2 MiB (4%)
 
截图
 
Image
下载资源: Download 开始下载
文件总大小: 10.3GB (种子:6,下载:10,完成:325)    
包含文件: URL 梦幻天堂·龙网(www.LWgod.org).开端.中国2022热剧.全15集/本片海报、简介、截图等双击这里进入发布地址查看.url (198Bytes)
URL 梦幻天堂·龙网(www.LWgod.org).开端.中国2022热剧.全15集/梦幻天堂·龙网(www.LWgod.org) 质量第一 品质保证.url (176Bytes)
UNKNOWN 梦幻天堂·龙网(www.LWgod.org).开端.中国2022热剧.全15集/梦幻天堂·龙网(www.LWgod.org) 超多爆爽资源下载目录.rtf (2.1KB)
MKV 梦幻天堂·龙网(www.LWgod.org).开端.中国2022热剧.全15集/梦幻天堂·龙网(www.LWgod.org).开端.中国2022热剧.第01集.mkv (938.1MB)
MKV 梦幻天堂·龙网(www.LWgod.org).开端.中国2022热剧.全15集/梦幻天堂·龙网(www.LWgod.org).开端.中国2022热剧.第02集.mkv (754.5MB)
MKV 梦幻天堂·龙网(www.LWgod.org).开端.中国2022热剧.全15集/梦幻天堂·龙网(www.LWgod.org).开端.中国2022热剧.第03集.mkv (514.4MB)
MKV 梦幻天堂·龙网(www.LWgod.org).开端.中国2022热剧.全15集/梦幻天堂·龙网(www.LWgod.org).开端.中国2022热剧.第04集.mkv (773MB)
MKV 梦幻天堂·龙网(www.LWgod.org).开端.中国2022热剧.全15集/梦幻天堂·龙网(www.LWgod.org).开端.中国2022热剧.第05集.mkv (727.6MB)
MKV 梦幻天堂·龙网(www.LWgod.org).开端.中国2022热剧.全15集/梦幻天堂·龙网(www.LWgod.org).开端.中国2022热剧.第06集.mkv (478.7MB)
MKV 梦幻天堂·龙网(www.LWgod.org).开端.中国2022热剧.全15集/梦幻天堂·龙网(www.LWgod.org).开端.中国2022热剧.第07集.mkv (556.4MB)
MKV 梦幻天堂·龙网(www.LWgod.org).开端.中国2022热剧.全15集/梦幻天堂·龙网(www.LWgod.org).开端.中国2022热剧.第08集.mkv (724.3MB)
MKV 梦幻天堂·龙网(www.LWgod.org).开端.中国2022热剧.全15集/梦幻天堂·龙网(www.LWgod.org).开端.中国2022热剧.第09集.mkv (861.9MB)
MKV 梦幻天堂·龙网(www.LWgod.org).开端.中国2022热剧.全15集/梦幻天堂·龙网(www.LWgod.org).开端.中国2022热剧.第10集.mkv (654.1MB)
MKV 梦幻天堂·龙网(www.LWgod.org).开端.中国2022热剧.全15集/梦幻天堂·龙网(www.LWgod.org).开端.中国2022热剧.第11集.mkv (673.4MB)
MKV 梦幻天堂·龙网(www.LWgod.org).开端.中国2022热剧.全15集/梦幻天堂·龙网(www.LWgod.org).开端.中国2022热剧.第12集.mkv (714.7MB)
MKV 梦幻天堂·龙网(www.LWgod.org).开端.中国2022热剧.全15集/梦幻天堂·龙网(www.LWgod.org).开端.中国2022热剧.第13集.mkv (587.2MB)
MKV 梦幻天堂·龙网(www.LWgod.org).开端.中国2022热剧.全15集/梦幻天堂·龙网(www.LWgod.org).开端.中国2022热剧.第14集.mkv (507.8MB)
MKV 梦幻天堂·龙网(www.LWgod.org).开端.中国2022热剧.全15集/梦幻天堂·龙网(www.LWgod.org).开端.中国2022热剧.第15集.mkv (1.1GB)
UNKNOWN 梦幻天堂·龙网(www.LWgod.org).开端.中国2022热剧.全15集/梦幻天堂·龙网最新网址 www.LWgod.org 请重新收藏.rtf (890Bytes)
Powered by BTMaster.cn Version:1.3.3