【龙网转发】【中国2022最新感人励志】【出拳吧,妈妈】【WebDL-2160p.MKV】【国语】 - 龙网BT发布页 - 梦幻天堂·龙网专属BT发布页
资源名称: 【龙网转发】【中国2022最新感人励志】【出拳吧,妈妈】【WebDL-2160p.MKV】【国语】 [参与讨论]
发布者: 由 lwgod 发布于2022/06/19 13:03
发布联盟:
资源介绍:
海报
 
Image
 
译  名 出拳吧,妈妈/全心爱你/拳心爱你
片  名 Shallow
年  代 2022
国  家 中国
类  别 剧情/运动
语  言 汉语普通话
字  幕 中文硬字幕
评  分 5.1/10 from 2,306 users
文件大小 4.44 GB
片  长 96 Min
导  演 唐晓白 Xiaobai Tang
主  演 谭卓 Zhuo Tan
     田雨 Yu Tian
     田海蓉 Hairong Tian
     郭唐维 Tangwei Guo
     赵诗朦 Shimeng Zhao
     陈明昊 Minghao Chen
     魏中凯 Zhongkai Wei
     李俊墨 Junmo Li
     孙正霖 Zhenglin Sun
     赵铭岳 Mingyue Zhao
     刘林城 Lincheng Liu
 
简介
 
  丧到家的人生难道翻盘不出高光时刻了吗?白杨(谭卓 饰)是一个性格倔强、坚守内心原则的年轻妈妈;几年前因一时冲动失去所有、母子分离,孩子被迫交给姐姐(田海蓉 饰)扶养;直到遇见性格奇葩、舌毒心暖的男人沈浩(田雨 饰),在他的帮助下,白杨重新燃起了斗志,痛下决心夺回失去的一切。而前方等着白杨的,却完全超乎了她的想象……
 
Video
Format                         : HEVC
Format/Info                    : High Efficiency Video Coding
Format profile                 : Main 10 @ L5.1 @ Main
Codec ID                       : V_MPEGH/ISO/HEVC
Duration                       : 1 h 35 min
Bit rate                       : 6 416 kb/s
Width                          : 3 840 pixels
Height                         : 1 604 pixels
Display aspect ratio           : 2.40:1
Frame rate mode                : Constant
Frame rate                     : 60.000 FPS
Color space                    : YUV
Chroma subsampling             : 4:2:0
Bit depth                      : 10 bits
Bits/(Pixel*Frame)             : 0.017
Stream size                    : 4.27 GiB (96%)
Color range                    : Limited
Color primaries                : BT.709
Transfer characteristics       : BT.709
Matrix coefficients            : BT.709
 
Audio
Format                         : E-AC-3
Format/Info                    : Enhanced AC-3
Commercial name                : Dolby Digital Plus
Codec ID                       : A_EAC3
Duration                       : 1 h 35 min
Bit rate mode                  : Constant
Bit rate                       : 256 kb/s
Channel(s)                     : 6 channels
Channel layout                 : L R C LFE Ls Rs
Sampling rate                  : 48.0 kHz
Frame rate                     : 31.250 FPS (1536 SPF)
Compression mode               : Lossy
Stream size                    : 175 MiB (4%)
Service kind                   : Complete Main
 
截图
 
Image
下载资源: Download 开始下载
文件总大小: 4.4GB (种子:9,下载:6,完成:201)    
包含文件: URL 梦幻天堂·龙网(www.LWgod.org).出拳吧,妈妈/本片海报、简介、截图等双击这里进入发布地址查看.url (198Bytes)
URL 梦幻天堂·龙网(www.LWgod.org).出拳吧,妈妈/梦幻天堂·龙网(www.LWgod.org) 质量第一 品质保证.url (176Bytes)
UNKNOWN 梦幻天堂·龙网(www.LWgod.org).出拳吧,妈妈/梦幻天堂·龙网(www.LWgod.org) 超多爆爽资源下载目录.rtf (2.1KB)
MKV 梦幻天堂·龙网(www.LWgod.org).出拳吧,妈妈/梦幻天堂·龙网(www.LWgod.org).出拳吧,妈妈.mkv (4.4GB)
UNKNOWN 梦幻天堂·龙网(www.LWgod.org).出拳吧,妈妈/梦幻天堂·龙网最新网址 www.LWgod.org 请重新收藏.rtf (890Bytes)
Powered by BTMaster.cn Version:1.3.3