【龙网转发】【凯奇2022喜剧动作】【天才不能承受之重】【WebDL-1080p.MKV】【中字】 - 龙网BT发布页 - 梦幻天堂·龙网专属BT发布页
资源名称: 【龙网转发】【凯奇2022喜剧动作】【天才不能承受之重】【WebDL-1080p.MKV】【中字】 [参与讨论]
发布者: 由 lwgod 发布于2022/06/09 19:32
发布联盟:
资源介绍:
海报
 
Image
 
Image
 
译  名 天才不能承受之重/超重天才/超吉任务(台)/丧尽癫才(港)/天才无法承受之重/不能承受的天才之重
片  名 The Unbearable Weight of Massive Talent
年  代 2022
国  家 美国
类  别 喜剧/动作/犯罪
语  言 英语
字  幕 中简/中繁/英文
评  分 7.3/10 from 26,747 users
文件大小 6.69 GB
片  长 107 Min
导  演 汤姆·戈米肯 Tom Gormican
主  演 尼古拉斯·凯奇 Nicolas Cage
     佩德罗·帕斯卡 Pedro Pascal
     蒂凡尼·哈迪斯 Tiffany Haddish
     莎朗·豪根 Sharon Horgan
     帕科·莱昂 Paco Leon
     尼尔·帕特里克·哈里斯 Neil Patrick Harris
     莉莉·莫·辛 Lily Mo Sheen
     亚历桑德拉·马斯特罗纳迪 Alessandra Mastronardi
     雅各布·西皮奥 Jacob Scipio
     卡特琳·万科娃 Katrin Vankova
     黛米·摩尔 Demi Moore
 
简介
 
  尼古拉斯·凯奇有新片了,这次他要在电影里演自己。该片主角就是尼古拉斯·凯奇本人,他疯狂的渴望在昆汀·塔伦蒂诺的下部电影里得到一个角色,他经常会和自己脑海中一个90年代的自己对话,后者不断吐槽他“老是接烂片”、“再也不是当年那个电影明星”了。
 
  演员尼古拉斯·凯奇因为负债累累接受了一位墨西哥亿万富翁的邀约,为了100万美元参加其生日派对。在那里,凯奇得知富翁经营着一家毒品垄断公司,中央情报局则招募凯奇进行情报工作。这时更戏剧化的事出现:这位毒枭带来了凯奇的女儿和前妻,希望三人搞好关系。三人的生命安全都有了危险,此时凯奇必须承担起自己的责任。
 
  《天才不能承受之重》就像尼古拉斯·凯奇本人那样不可预测,喜欢凯奇这一点的人会很爱这部片。导演设计了原创且卓越的概念,成品则显得过于技术流,只有真正的凯奇粉丝才能理解所有的笑话。该片是一部开尼古拉斯·凯奇辉煌年代玩笑的商业喜剧,庆祝他作为凯奇的一切。最后也真的变成了一部尼古拉斯凯奇电影,事实证明,这既是有点俗气的事,也是一部特别的事。如果有观众是凯奇的粉丝,那么就会对这部电影对凯奇元素每一次引用感到兴奋;如果不是凯奇粉丝,这也是一部感人、引人入胜、有趣的电影。
 
Video
Format                         : AVC
Format/Info                    : Advanced Video Codec
Format profile                 : High@L4
Format settings                : CABAC / 4 Ref Frames
Format settings, CABAC         : Yes
Format settings, Reference fra : 4 frames
Codec ID                       : V_MPEG4/ISO/AVC
Duration                       : 1 h 46 min
Bit rate mode                  : Constant
Bit rate                       : 8 182 kb/s
Nominal bit rate               : 10 000 kb/s
Width                          : 1 920 pixels
Height                         : 800 pixels
Display aspect ratio           : 2.40:1
Frame rate mode                : Constant
Frame rate                     : 23.976 (24000/1001) FPS
Color space                    : YUV
Chroma subsampling             : 4:2:0
Bit depth                      : 8 bits
Scan type                      : Progressive
Bits/(Pixel*Frame)             : 0.222
Stream size                    : 6.11 GiB (91%)
Color range                    : Limited
Color primaries                : BT.709
Transfer characteristics       : BT.709
Matrix coefficients            : BT.709
 
Audio
Format                         : E-AC-3 JOC
Format/Info                    : Enhanced AC-3 with Joint Object Coding
Commercial name                : Dolby Digital Plus with Dolby Atmos
Codec ID                       : A_EAC3
Duration                       : 1 h 46 min
Bit rate mode                  : Constant
Bit rate                       : 768 kb/s
Channel(s)                     : 6 channels
Channel layout                 : L R C LFE Ls Rs
Sampling rate                  : 48.0 kHz
Frame rate                     : 31.250 FPS (1536 SPF)
Compression mode               : Lossy
Stream size                    : 587 MiB (9%)
Service kind                   : Complete Main
Complexity index               : 16
Number of dynamic objects      : 15
Bed channel count              : 1 channel
Bed channel configuration      : LFE
 
截图
 
Image
下载资源: Download 开始下载
文件总大小: 6.7GB (种子:12,下载:6,完成:551)    
包含文件: URL 梦幻天堂·龙网(www.LWgod.org).天才不能承受之重.超吉任务/本片海报、简介、截图等双击这里进入发布地址查看.url (198Bytes)
URL 梦幻天堂·龙网(www.LWgod.org).天才不能承受之重.超吉任务/梦幻天堂·龙网(www.LWgod.org) 质量第一 品质保证.url (176Bytes)
UNKNOWN 梦幻天堂·龙网(www.LWgod.org).天才不能承受之重.超吉任务/梦幻天堂·龙网(www.LWgod.org) 超多爆爽资源下载目录.rtf (2.1KB)
MKV 梦幻天堂·龙网(www.LWgod.org).天才不能承受之重.超吉任务/梦幻天堂·龙网(www.LWgod.org).天才不能承受之重.超吉任务.mkv (6.7GB)
UNKNOWN 梦幻天堂·龙网(www.LWgod.org).天才不能承受之重.超吉任务/梦幻天堂·龙网最新网址 www.LWgod.org 请重新收藏.rtf (890Bytes)
Powered by BTMaster.cn Version:1.3.3