【龙网转发】【中国2022好评热门悬疑惊悚】【山村狐妻】【WebDL-2160p.MKV】【国语】 - 龙网BT发布页 - 梦幻天堂·龙网专属BT发布页
资源名称: 【龙网转发】【中国2022好评热门悬疑惊悚】【山村狐妻】【WebDL-2160p.MKV】【国语】 [参与讨论]
发布者: 由 lwgod 发布于2022/06/13 21:04
发布联盟:
资源介绍:
海报
 
Image
 
Image
 
译  名 山村狐妻
片  名 The Wicked Wife
年  代 2022
国  家 中国
类  别 悬疑/惊悚
语  言 汉语普通话
字  幕 中英硬字幕
评  分 6.5/10 from 5,904 users
文件大小 1.82 GB
片  长 93 Min
导  演 刘轩狄 Xuandi Liu
主  演 盛冠森 Guansen Sheng
     王铭 Wang Ming
     林枫烨 Fengye Lin
     付赫安琪 Anqi Fu-He
     恩璟 En Jing
     傅隽 Jun Fu
     包小平 Xiaoping Bao
     韩锐 Rui Han
     王佳希 Jiaxi Wang
     郭东海 Donghai Guo
     魏劲松 Jinsong Wei
 
简介
 
  民国年间,一场大雨困住了准备渡河前往喇叭沟唱红事的戏班子。雷雨交加的夜晚,与戏班子一同避雨的竟还有杀人如麻的山匪、身份不明的巡捕,一群各怀鬼胎的人,竟都与十五年前的狐妻事件密切相关。有关狐妻的传闻,有的说是村民偷了狐仙殿的灯油被狐仙发现,被迫娶了狐仙为妻。有的说是狐妖在茶杯村作祟,抓了村民打絮巴造畜……其中真相都与一个叫李寿庭的杀人犯有关。而今这个叫李寿庭的人正在这龙王庙中避雨。狡黠难缠的杀人犯和心思不明的戏班子,沾满鲜血的过去在怪力乱神的说辞中逐渐清晰……
 
  终于有一部像样的国产惊悚片了。电影依托于东北民间志怪传说展开,为影片赋予了惊悚、悬疑的吸睛外表,而深挖的人性、直击人心的故事内核,到最后一刻,才水落石出。除却恐怖元素,它真正做到了很多院线片都做不好的事:讲好一个故事。所谓“狐妖”,即便世界上真的存在,也并不可怕。可怕的,是惊悚背后,最残忍的人性,狐妖之恶,比起人之恶,实在是要单纯得多。狐妖的洞穴再深,又怎会有人心这么深呢?
 
Video
Format                         : HEVC
Format/Info                    : High Efficiency Video Coding
Format profile                 : Main@L5@Main
Codec ID                       : V_MPEGH/ISO/HEVC
Duration                       : 1 h 32 min
Bit rate                       : 2 622 kb/s
Width                          : 3 840 pixels
Height                         : 1 440 pixels
Display aspect ratio           : 2.667
Frame rate mode                : Constant
Frame rate                     : 25.000 FPS
Color space                    : YUV
Chroma subsampling             : 4:2:0
Bit depth                      : 8 bits
Bits/(Pixel*Frame)             : 0.019
Stream size                    : 1.70 GiB (93%)
Color range                    : Limited
Color primaries                : BT.709
Transfer characteristics       : BT.709
Matrix coefficients            : BT.709
 
Audio
Format                         : AAC LC
Format/Info                    : Advanced Audio Codec Low Complexity
Codec ID                       : A_AAC-2
Duration                       : 1 h 32 min
Bit rate                       : 192 kb/s
Channel(s)                     : 2 channels
Channel layout                 : L R
Sampling rate                  : 44.1 kHz
Frame rate                     : 43.066 FPS (1024 SPF)
Compression mode               : Lossy
Stream size                    : 126 MiB (7%)
 
截图
 
Image
下载资源: Download 开始下载
文件总大小: 1.8GB (种子:8,下载:3,完成:730)    
包含文件: URL 梦幻天堂·龙网(www.LWgod.org).山村狐妻/本片海报、简介、截图等双击这里进入发布地址查看.url (198Bytes)
URL 梦幻天堂·龙网(www.LWgod.org).山村狐妻/梦幻天堂·龙网(www.LWgod.org) 质量第一 品质保证.url (176Bytes)
UNKNOWN 梦幻天堂·龙网(www.LWgod.org).山村狐妻/梦幻天堂·龙网(www.LWgod.org) 超多爆爽资源下载目录.rtf (2.1KB)
MKV 梦幻天堂·龙网(www.LWgod.org).山村狐妻/梦幻天堂·龙网(www.LWgod.org).山村狐妻.mkv (1.8GB)
UNKNOWN 梦幻天堂·龙网(www.LWgod.org).山村狐妻/梦幻天堂·龙网最新网址 www.LWgod.org 请重新收藏.rtf (890Bytes)
Powered by BTMaster.cn Version:1.3.3