【龙网转发】【2019】【爱,死亡和机器人.第一季.全18集】【WebDL-1080p.MKV】【中英】 - 龙网BT发布页 - 梦幻天堂·龙网专属BT发布页
资源名称: 【龙网转发】【2019】【爱,死亡和机器人.第一季.全18集】【WebDL-1080p.MKV】【中英】 [参与讨论]
发布者: 由 lwgod 发布于2022/05/31 19:57
发布联盟:
资源介绍:
海报
 
Image
 
译  名 爱,死亡和机器人 第一季/爱 x 死 x 机器人(台)/爱.死.机械人(港)/爱、死亡 & 机器人/爱、死亡 + 机器人
片  名 Love, Death & Robots Season 1
年  代 2019
国  家 美国
类  别 动画/科幻/奇幻/恐怖/喜剧/短片
语  言 英语
字  幕 中英/中繁/英文
评  分 9.2/10 from 425,994 users
文件大小 9.40 GB
单集片长 15 Min
集  数 18
导  演 维克多·马尔多纳多 Victor Maldonado
     加布里埃尔·彭纳基奥利 Gabriele Pennacchioli
     阿尔弗雷多·托雷斯 Alfredo Torres
     弗兰克·巴尔森 Franck Balson
     阿尔贝托·米尔戈 Alberto Mielgo
     蒂姆·米勒 Tim Miller
     达米安·纽诺 Damian Nenow
     杰罗姆·陈 Jerome Chen
     维塔利·舒舒科 Vitaliy Shushko
     欧文·沙利文 Owen Sullivan
     罗伯特·瓦利 Robert Valley
     戴夫·威尔逊 Dave Wilson
     乔恩·叶 Jon Yeo
     哈维尔·雷西奥·格雷西亚 Javier Recio Gracia
主  演 斯科特·怀特 Scott Whyte
     诺兰·诺斯 Nolan North
     马修·杨·金 Matthew Yang King
     迈克尔·本耶尔 Michael Benyaer
     乔什·布雷纳 Josh Brener
     艾莉·康德伦 Elly Condron
     亨利·杜思韦特 Henry Douthwaite
     亚伦·希梅尔斯坦 Aaron Himelstein
     斯蒂芬·卡皮契奇 Stefan Kapicic
     莫里斯·拉马奇 Maurice LaMarche
     艾米丽·奥布莱恩 Emily O'Brien
     凯文·迈克尔·理查德森 Kevin Michael Richardson
     海伦·萨德勒 Helen Sadler
     伊兰妮·谭 Elaine Tan
 
简介
 
  这部名为《爱,死亡和机器人》的动画短片合集由18部分组成,每部分时长5-15分钟。这些短片涵盖多种类型,包括科幻、奇幻、恐怖和喜剧;这些短片也将包含多种形式,包括传统2D和3DCGI短片。
 
  《爱,死亡和机器人》汲取了众多原著小说的灵感,然后将大众作品总是刻意避免的悲观主义、成人向、猎奇风展现得淋漓尽致。里面充斥着挑动肾上腺素的血腥、暴力、情色、恐怖元素,Geek们最爱的机甲、怪兽、科幻、赛博朋克统统扔进去,只为创造出一场风格多元的视觉盛宴。总的说来,《爱,死亡和机器人》是一部很有趣的作品,无论是硬核动漫迷,还是对媒体革新感兴趣的观众,都值得一看。
 
Video
Format                         : HEVC
Format/Info                    : High Efficiency Video Coding
Format profile                 : Main 10@L4@Main
Codec ID                       : V_MPEGH/ISO/HEVC
Duration                       : 17 min 28 s
Bit rate                       : 5 114 kb/s
Width                          : 1 920 pixels
Height                         : 1 080 pixels
Display aspect ratio           : 16:9
Frame rate mode                : Constant
Frame rate                     : 24.000 FPS
Color space                    : YUV
Chroma subsampling             : 4:2:0
Bit depth                      : 10 bits
Bits/(Pixel*Frame)             : 0.103
Stream size                    : 639 MiB (85%)
Color range                    : Limited
Color primaries                : BT.709
Transfer characteristics       : BT.709
Matrix coefficients            : BT.709
 
Audio
Format                         : E-AC-3 JOC
Format/Info                    : Enhanced AC-3 with Joint Object Coding
Commercial name                : Dolby Digital Plus with Dolby Atmos
Codec ID                       : A_EAC3
Duration                       : 17 min 28 s
Bit rate mode                  : Constant
Bit rate                       : 768 kb/s
Channel(s)                     : 6 channels
Channel layout                 : L R C LFE Ls Rs
Sampling rate                  : 48.0 kHz
Frame rate                     : 31.250 FPS (1536 SPF)
Compression mode               : Lossy
Stream size                    : 96.0 MiB (13%)
Service kind                   : Complete Main
Complexity index               : 16
Number of dynamic objects      : 15
Bed channel count              : 1 channel
Bed channel configuration      : LFE
 
截图
 
Image
 
Image
下载资源: Download 开始下载
文件总大小: 9.4GB (种子:8,下载:17,完成:592)    
包含文件: URL 梦幻天堂·龙网(www.LWgod.org).爱,死亡和机器人.第一季.全18集/本片海报、简介、截图等双击这里进入发布地址查看.url (198Bytes)
URL 梦幻天堂·龙网(www.LWgod.org).爱,死亡和机器人.第一季.全18集/梦幻天堂·龙网(www.LWgod.org) 质量第一 品质保证.url (176Bytes)
UNKNOWN 梦幻天堂·龙网(www.LWgod.org).爱,死亡和机器人.第一季.全18集/梦幻天堂·龙网(www.LWgod.org) 超多爆爽资源下载目录.rtf (2.1KB)
MKV 梦幻天堂·龙网(www.LWgod.org).爱,死亡和机器人.第一季.全18集/梦幻天堂·龙网(www.LWgod.org).爱,死亡和机器人.第一季.第01集.mkv (748.1MB)
MKV 梦幻天堂·龙网(www.LWgod.org).爱,死亡和机器人.第一季.全18集/梦幻天堂·龙网(www.LWgod.org).爱,死亡和机器人.第一季.第02集.mkv (500.4MB)
MKV 梦幻天堂·龙网(www.LWgod.org).爱,死亡和机器人.第一季.全18集/梦幻天堂·龙网(www.LWgod.org).爱,死亡和机器人.第一季.第03集.mkv (525.8MB)
MKV 梦幻天堂·龙网(www.LWgod.org).爱,死亡和机器人.第一季.全18集/梦幻天堂·龙网(www.LWgod.org).爱,死亡和机器人.第一季.第04集.mkv (718MB)
MKV 梦幻天堂·龙网(www.LWgod.org).爱,死亡和机器人.第一季.全18集/梦幻天堂·龙网(www.LWgod.org).爱,死亡和机器人.第一季.第05集.mkv (566.9MB)
MKV 梦幻天堂·龙网(www.LWgod.org).爱,死亡和机器人.第一季.全18集/梦幻天堂·龙网(www.LWgod.org).爱,死亡和机器人.第一季.第06集.mkv (243.9MB)
MKV 梦幻天堂·龙网(www.LWgod.org).爱,死亡和机器人.第一季.全18集/梦幻天堂·龙网(www.LWgod.org).爱,死亡和机器人.第一季.第07集.mkv (710.8MB)
MKV 梦幻天堂·龙网(www.LWgod.org).爱,死亡和机器人.第一季.全18集/梦幻天堂·龙网(www.LWgod.org).爱,死亡和机器人.第一季.第08集.mkv (707.7MB)
MKV 梦幻天堂·龙网(www.LWgod.org).爱,死亡和机器人.第一季.全18集/梦幻天堂·龙网(www.LWgod.org).爱,死亡和机器人.第一季.第09集.mkv (448.3MB)
MKV 梦幻天堂·龙网(www.LWgod.org).爱,死亡和机器人.第一季.全18集/梦幻天堂·龙网(www.LWgod.org).爱,死亡和机器人.第一季.第10集.mkv (712MB)
MKV 梦幻天堂·龙网(www.LWgod.org).爱,死亡和机器人.第一季.全18集/梦幻天堂·龙网(www.LWgod.org).爱,死亡和机器人.第一季.第11集.mkv (424.9MB)
MKV 梦幻天堂·龙网(www.LWgod.org).爱,死亡和机器人.第一季.全18集/梦幻天堂·龙网(www.LWgod.org).爱,死亡和机器人.第一季.第12集.mkv (413.7MB)
MKV 梦幻天堂·龙网(www.LWgod.org).爱,死亡和机器人.第一季.全18集/梦幻天堂·龙网(www.LWgod.org).爱,死亡和机器人.第一季.第13集.mkv (644.6MB)
MKV 梦幻天堂·龙网(www.LWgod.org).爱,死亡和机器人.第一季.全18集/梦幻天堂·龙网(www.LWgod.org).爱,死亡和机器人.第一季.第14集.mkv (417.5MB)
MKV 梦幻天堂·龙网(www.LWgod.org).爱,死亡和机器人.第一季.全18集/梦幻天堂·龙网(www.LWgod.org).爱,死亡和机器人.第一季.第15集.mkv (368.6MB)
MKV 梦幻天堂·龙网(www.LWgod.org).爱,死亡和机器人.第一季.全18集/梦幻天堂·龙网(www.LWgod.org).爱,死亡和机器人.第一季.第16集.mkv (438.8MB)
MKV 梦幻天堂·龙网(www.LWgod.org).爱,死亡和机器人.第一季.全18集/梦幻天堂·龙网(www.LWgod.org).爱,死亡和机器人.第一季.第17集.mkv (323MB)
MKV 梦幻天堂·龙网(www.LWgod.org).爱,死亡和机器人.第一季.全18集/梦幻天堂·龙网(www.LWgod.org).爱,死亡和机器人.第一季.第18集.mkv (718.4MB)
UNKNOWN 梦幻天堂·龙网(www.LWgod.org).爱,死亡和机器人.第一季.全18集/梦幻天堂·龙网最新网址 www.LWgod.org 请重新收藏.rtf (890Bytes)
Powered by BTMaster.cn Version:1.3.3