【龙网转发】【张涵予范伟2021新动作战争】【铁道英雄】【WebDL-2160p.MKV】【国语】 - 龙网BT发布页 - 梦幻天堂·龙网专属BT发布页
资源名称: 【龙网转发】【张涵予范伟2021新动作战争】【铁道英雄】【WebDL-2160p.MKV】【国语】 [参与讨论]
发布者: 由 lwgod 发布于2022/04/25 21:34
发布联盟:
资源介绍:
海报
 
Image
 
Image
 
译  名 铁道英雄/铁道游击队1939/铁道队
片  名 Railway Heroes
年  代 2021
国  家 中国
类  别 动作/历史/战争/剧情
语  言 汉语普通话
字  幕 中英硬字幕
评  分 5.8/10 from 50,662 users
文件大小 4.32 GB
片  长 123 Min
导  演 杨枫 Feng Yang
主  演 张涵予 Hanyu Zhang
     范伟 Wei Fan
     魏晨 Vision Wei
     周也 Ye Zhou
     俞灏明 Haoming Yu
     森博之 Hiroyuki Mori
     谭凯 Kai Tan
     杨皓宇 Haoyu Yang
     小么哥 Xiaomege
     张帆 Fan Zhang
     周政杰 Zhengjie Zhou
 
简介
 
  抗日战争时期,在日军肆虐横行的鲁南地区,临城枣庄英勇的“铁道队”穿铁轨、扒火车,截取武器和物资,用胆识和智慧与敌人斗争到底,殊死捍卫家园,为抗战胜利作出突出贡献。
 
  本片是根据发生在1935年-1945年间,洪振海、王志胜、杜季伟、刘金山等“铁道队”队员的真实事迹改编,将最大限度地还原“铁道队”的英雄故事。
 
Video
Format                         : HEVC
Format/Info                    : High Efficiency Video Coding
Format profile                 : Main 10 @ L5.1 @ Main
Codec ID                       : V_MPEGH/ISO/HEVC
Duration                       : 2 h 3 min
Bit rate                       : 4 618 kb/s
Width                          : 3 840 pixels
Height                         : 1 608 pixels
Display aspect ratio           : 2.40:1
Frame rate mode                : Constant
Frame rate                     : 60.000 FPS
Color space                    : YUV
Chroma subsampling             : 4:2:0
Bit depth                      : 10 bits
Bits/(Pixel*Frame)             : 0.012
Stream size                    : 3.99 GiB (92%)
Color range                    : Limited
Color primaries                : BT.709
Transfer characteristics       : BT.709
Matrix coefficients            : BT.709
 
Audio
Format                         : E-AC-3
Format/Info                    : Enhanced AC-3
Commercial name                : Dolby Digital Plus
Codec ID                       : A_EAC3
Duration                       : 2 h 3 min
Bit rate mode                  : Constant
Bit rate                       : 384 kb/s
Channel(s)                     : 6 channels
Channel layout                 : L R C LFE Ls Rs
Sampling rate                  : 48.0 kHz
Frame rate                     : 31.250 FPS (1536 SPF)
Compression mode               : Lossy
Stream size                    : 340 MiB (8%)
Service kind                   : Complete Main
 
截图
 
Image
下载资源: Download 开始下载
文件总大小: 4.3GB (种子:1,下载:4,完成:341)    
包含文件: URL 梦幻天堂·龙网(www.LWgod.org).铁道英雄.铁道游击队1939/本片海报、简介、截图等双击这里进入发布地址查看.url (198Bytes)
URL 梦幻天堂·龙网(www.LWgod.org).铁道英雄.铁道游击队1939/梦幻天堂·龙网(www.LWgod.org) 质量第一 品质保证.url (176Bytes)
UNKNOWN 梦幻天堂·龙网(www.LWgod.org).铁道英雄.铁道游击队1939/梦幻天堂·龙网(www.LWgod.org) 超多爆爽资源下载目录.rtf (2.1KB)
MKV 梦幻天堂·龙网(www.LWgod.org).铁道英雄.铁道游击队1939/梦幻天堂·龙网(www.LWgod.org).铁道英雄.铁道游击队1939.mkv (4.3GB)
UNKNOWN 梦幻天堂·龙网(www.LWgod.org).铁道英雄.铁道游击队1939/梦幻天堂·龙网最新网址 www.LWgod.org 请重新收藏.rtf (890Bytes)
Powered by BTMaster.cn Version:1.3.3