【龙网转发】【任贤齐任达华2022动作犯罪】【边缘行者】【WebDL-2160p.MKV】【双语】 - 龙网BT发布页 - 梦幻天堂·龙网专属BT发布页
资源名称: 【龙网转发】【任贤齐任达华2022动作犯罪】【边缘行者】【WebDL-2160p.MKV】【双语】 [参与讨论]
发布者: 由 lwgod 发布于2022/06/12 13:54
发布联盟:
资源介绍:
海报
 
Image
 
Image
 
译  名 边缘行者
片  名 Man on the Edge
年  代 2022
国  家 中国/中国香港
类  别 动作/犯罪/悬疑
语  言 国语粤语双音轨
字  幕 中文硬字幕
评  分 5.2/10 from 17,077 users
文件大小 6.59 GB
片  长 113 Min
导  演 黄明升 Ming-Sing Wong
主  演 任贤齐 Richie Jen
     任达华 Simon Yam
     方中信 Alex Fong
     谭耀文 Patrick Tam
     吴卓羲 Ron Ng
     陈国坤 Kwok-Kwan Chan
     林晓峰 Jerry Lamb
     河国荣 Gregory Charles Rivers
     尹扬明 Yeung Ming Wan
     朱鉴然 kevin Chu
     洪金宝 Sammo Hung
     林嘉欣 Karena Lam
 
简介
 
  1997年回归前夕,多方势力矛盾激化,暴力事件频发。
 
  巨变当前,黑帮龙头林耀昌(任达华 饰)对亲信阿骆(任贤齐 饰)委以帮派重任。多重身份的阿骆在黑白边缘行走,一场除暴行动正悄然掀开反杀的序幕。
 
Video
Format                         : HEVC
Format/Info                    : High Efficiency Video Coding
Format profile                 : Main 10 @ L5.1 @ Main
Codec ID                       : V_MPEGH/ISO/HEVC
Duration                       : 1 h 53 min
Bit rate                       : 7 578 kb/s
Width                          : 3 840 pixels
Height                         : 1 604 pixels
Display aspect ratio           : 2.40:1
Frame rate mode                : Constant
Frame rate                     : 60.000 FPS
Color space                    : YUV
Chroma subsampling             : 4:2:0
Bit depth                      : 10 bits
Bits/(Pixel*Frame)             : 0.021
Stream size                    : 5.99 GiB (91%)
Color range                    : Limited
Color primaries                : BT.709
Transfer characteristics       : BT.709
Matrix coefficients            : BT.709
 
Audio #1
Format                         : E-AC-3
Format/Info                    : Enhanced AC-3
Commercial name                : Dolby Digital Plus
Codec ID                       : A_EAC3
Duration                       : 1 h 53 min
Bit rate mode                  : Constant
Bit rate                       : 384 kb/s
Channel(s)                     : 6 channels
Channel layout                 : L R C LFE Ls Rs
Sampling rate                  : 48.0 kHz
Frame rate                     : 31.250 FPS (1536 SPF)
Compression mode               : Lossy
Stream size                    : 311 MiB (5%)
Title                          : 国语音轨
Language                       : Chinese
Service kind                   : Complete Main
 
Audio #2
Format                         : E-AC-3
Format/Info                    : Enhanced AC-3
Commercial name                : Dolby Digital Plus
Codec ID                       : A_EAC3
Duration                       : 1 h 53 min
Bit rate mode                  : Constant
Bit rate                       : 384 kb/s
Channel(s)                     : 6 channels
Channel layout                 : L R C LFE Ls Rs
Sampling rate                  : 48.0 kHz
Frame rate                     : 31.250 FPS (1536 SPF)
Compression mode               : Lossy
Stream size                    : 311 MiB (5%)
Title                          : 粤语音轨
Language                       : Chinese
Service kind                   : Complete Main
截图
 
Image
下载资源: Download 开始下载
文件总大小: 6.6GB (种子:19,下载:10,完成:1115)    
包含文件: URL 梦幻天堂·龙网(www.LWgod.org).边缘行者/本片海报、简介、截图等双击这里进入发布地址查看.url (198Bytes)
URL 梦幻天堂·龙网(www.LWgod.org).边缘行者/梦幻天堂·龙网(www.LWgod.org) 质量第一 品质保证.url (176Bytes)
UNKNOWN 梦幻天堂·龙网(www.LWgod.org).边缘行者/梦幻天堂·龙网(www.LWgod.org) 超多爆爽资源下载目录.rtf (2.1KB)
MKV 梦幻天堂·龙网(www.LWgod.org).边缘行者/梦幻天堂·龙网(www.LWgod.org).边缘行者.mkv (6.6GB)
UNKNOWN 梦幻天堂·龙网(www.LWgod.org).边缘行者/梦幻天堂·龙网最新网址 www.LWgod.org 请重新收藏.rtf (890Bytes)
Powered by BTMaster.cn Version:1.3.3