【龙网转发】【美国2022万众期待高分必看】【新蝙蝠侠】【WebDL-1080p.MKV】【中字】 - 龙网BT发布页 - 梦幻天堂·龙网专属BT发布页
资源名称: 【龙网转发】【美国2022万众期待高分必看】【新蝙蝠侠】【WebDL-1080p.MKV】【中字】 [参与讨论]
发布者: 由 lwgod 发布于2022/04/22 22:37
发布联盟:
资源介绍:
海报
 
Image
 
Image
 
译  名 新蝙蝠侠/蝙蝠侠(港/台)/重启版蝙蝠侠
片  名 The Batman
年  代 2022
国  家 美国
类  别 动作/悬疑/犯罪
语  言 英语
字  幕 中简/中繁/英语
评  分 8.2/10 from 373,423 users  Top 250 #204
文件大小 10.7 GB
片  长 176 Min
导  演 马特·里夫斯 Matt Reeves
主  演 罗伯特·帕丁森 Robert Pattinson
     佐伊·克罗维兹 Zoe Kravitz
     保罗·达诺 Paul Dano
     科林·法瑞尔 Colin Farrell
     杰弗里·怀特 Jeffrey Wright
     安迪·瑟金斯 Andy Serkis
     约翰·特托罗 John Turturro
     彼得·萨斯加德 Peter Sarsgaard
     巴里·基奥恩 Barry Keoghan
     杰米·劳森 Jayme Lawson
     吉尔·佩雷斯-亚伯拉罕 Gil Perez-Abraham
 
简介
 
  布鲁斯·韦恩(罗伯特·帕丁森 饰)化身蝙蝠侠于哥谭市行侠仗义两年后,罪犯皆闻风丧胆,他也因此深入接触到哥谭市的阴暗面。他潜行于哥谭市腐败的政要名流关系网中,身边仅有的几个值得信赖的盟友——管家阿尔弗雷德·潘尼沃斯(安迪·瑟金斯 饰)与詹姆斯·戈登警长(杰弗里·怀特 饰)。这位独行的“义警侠探”在哥谭市民心中已成为“复仇”二字最当仁不让的代名词。
 
Video
Format                         : HEVC
Format/Info                    : High Efficiency Video Coding
Format profile                 : Main 10 @ L4 @ High
Codec ID                       : V_MPEGH/ISO/HEVC
Duration                       : 2 h 56 min
Bit rate                       : 7 986 kb/s
Width                          : 1 920 pixels
Height                         : 1 080 pixels
Display aspect ratio           : 16:9
Frame rate mode                : Constant
Frame rate                     : 23.976 (24000/1001) FPS
Color space                    : YUV
Chroma subsampling             : 4:2:0 (Type 2)
Bit depth                      : 10 bits
Bits/(Pixel*Frame)             : 0.161
Stream size                    : 9.83 GiB (91%)
Color range                    : Limited
Color primaries                : BT.709
Transfer characteristics       : BT.709
Matrix coefficients            : BT.709
 
Audio
Format                         : E-AC-3 JOC
Format/Info                    : Enhanced AC-3 with Joint Object Coding
Commercial name                : Dolby Digital Plus with Dolby Atmos
Codec ID                       : A_EAC3
Duration                       : 2 h 56 min
Bit rate mode                  : Constant
Bit rate                       : 768 kb/s
Channel(s)                     : 6 channels
Channel layout                 : L R C LFE Ls Rs
Sampling rate                  : 48.0 kHz
Frame rate                     : 31.250 FPS (1536 SPF)
Compression mode               : Lossy
Stream size                    : 968 MiB (9%)
Service kind                   : Complete Main
Complexity index               : 16
Number of dynamic objects      : 15
Bed channel count              : 1 channel
Bed channel configuration      : LFE
 
截图
 
Image
下载资源: Download 开始下载
文件总大小: 10.8GB (种子:5,下载:2,完成:1010)    
包含文件: URL 梦幻天堂·龙网(www.LWgod.org).新蝙蝠侠.重启版蝙蝠侠/本片海报、简介、截图等双击这里进入发布地址查看.url (198Bytes)
URL 梦幻天堂·龙网(www.LWgod.org).新蝙蝠侠.重启版蝙蝠侠/梦幻天堂·龙网(www.LWgod.org) 质量第一 品质保证.url (176Bytes)
UNKNOWN 梦幻天堂·龙网(www.LWgod.org).新蝙蝠侠.重启版蝙蝠侠/梦幻天堂·龙网(www.LWgod.org) 超多爆爽资源下载目录.rtf (2.1KB)
MKV 梦幻天堂·龙网(www.LWgod.org).新蝙蝠侠.重启版蝙蝠侠/梦幻天堂·龙网(www.LWgod.org).新蝙蝠侠.重启版蝙蝠侠.mkv (10.8GB)
UNKNOWN 梦幻天堂·龙网(www.LWgod.org).新蝙蝠侠.重启版蝙蝠侠/梦幻天堂·龙网最新网址 www.LWgod.org 请重新收藏.rtf (890Bytes)
Powered by BTMaster.cn Version:1.3.3