【龙网转发】【刘德华林家栋彭于晏2023新巨制】【潜行】【WebDL-2160p.MKV】【双语】 - 龙网BT发布页 - 梦幻天堂·龙网专属BT发布页
资源名称: 【龙网转发】【刘德华林家栋彭于晏2023新巨制】【潜行】【WebDL-2160p.MKV】【双语】 [参与讨论]
发布者: 由 lwgod 发布于2024/03/28 20:15
发布联盟:
资源介绍:
海报
 
Image
 
Image
 
译  名 潜行/将进酒
片  名 I Did It My Way
年  代 2023
国  家 中国/中国香港
类  别 动作/犯罪/剧情
语  言 国语粤语双音轨
字  幕 中文硬字幕
评  分 5.3/10 from 72,983 users
文件大小 5.49 GB
片  长 114 Min
导  演 关智耀 Jason Kwan
主  演 刘德华 Andy Lau
     林家栋 Ka Tung Lam
     彭于晏 Eddie Peng
     刘雅瑟 Yase Liu
     任达华 Simon Yam
     林雪 Suet Lam
     郑则仕 Kent Cheng
     姜皓文 Philip Keung
     谈善言 Hedwig Tam
     朱鉴然 Kevin Kam
     刘俊谦 Terrance Lau
 
简介
 
  刘德华时隔16年再演大反派,单挑三代警察!
 
  4吨毒品秘密抵达香港后人间蒸发,幕后黑手竟是看上去人畜无害的律师林阵安(刘德华 饰)。借助暗网直播贩毒,一边杀人一边利用法律脱罪,无恶不作的林阵安不知道自己已悄悄被警察和仇家锁定。最好的兄弟、最爱的妻子先后遭遇变故,穷途末路的他彻底疯狂,想要让全世界付出代价……
 
Video
Format                         : HEVC
Format/Info                    : High Efficiency Video Coding
Format profile                 : Main @ L5.1 @ Main
Codec ID                       : V_MPEGH/ISO/HEVC
Duration                       : 1 h 54 min
Bit rate                       : 5 957 kb/s
Width                          : 3 840 pixels
Height                         : 1 608 pixels
Display aspect ratio           : 2.40:1
Frame rate mode                : Constant
Frame rate                     : 60.000 FPS
Color space                    : YUV
Chroma subsampling             : 4:2:0
Bit depth                      : 8 bits
Bits/(Pixel*Frame)             : 0.016
Stream size                    : 4.78 GiB (87%)
 
Audio #1
Format                         : E-AC-3
Format/Info                    : Enhanced AC-3
Commercial name                : Dolby Digital Plus
Codec ID                       : A_EAC3
Duration                       : 1 h 54 min
Bit rate mode                  : Constant
Bit rate                       : 448 kb/s
Channel(s)                     : 6 channels
Channel layout                 : L R C LFE Ls Rs
Sampling rate                  : 48.0 kHz
Frame rate                     : 31.250 FPS (1536 SPF)
Compression mode               : Lossy
Stream size                    : 368 MiB (7%)
Language                       : Chinese
Service kind                   : Complete Main
 
Audio #2
Format                         : E-AC-3
Format/Info                    : Enhanced AC-3
Commercial name                : Dolby Digital Plus
Codec ID                       : A_EAC3
Duration                       : 1 h 54 min
Bit rate mode                  : Constant
Bit rate                       : 448 kb/s
Channel(s)                     : 6 channels
Channel layout                 : L R C LFE Ls Rs
Sampling rate                  : 48.0 kHz
Frame rate                     : 31.250 FPS (1536 SPF)
Compression mode               : Lossy
Stream size                    : 368 MiB (7%)
Language                       : Chinese
Service kind                   : Complete Main
 
截图
 
Image
下载资源: Download 开始下载
文件总大小: 5.5GB (种子:5,下载:2,完成:281)    
包含文件: URL 梦幻天堂·龙网(www.LWgod.org).潜行.将进酒/本片海报、简介、截图等双击这里进入发布地址查看.url (198Bytes)
URL 梦幻天堂·龙网(www.LWgod.org).潜行.将进酒/梦幻天堂·龙网(www.LWgod.org) 质量第一 品质保证.url (176Bytes)
UNKNOWN 梦幻天堂·龙网(www.LWgod.org).潜行.将进酒/梦幻天堂·龙网(www.LWgod.org) 超多爆爽资源下载目录.rtf (2.1KB)
MKV 梦幻天堂·龙网(www.LWgod.org).潜行.将进酒/梦幻天堂·龙网(www.LWgod.org).潜行.将进酒.mkv (5.5GB)
UNKNOWN 梦幻天堂·龙网(www.LWgod.org).潜行.将进酒/梦幻天堂·龙网最新网址 www.LWgod.org 请重新收藏.rtf (890Bytes)
Powered by BTMaster.cn Version:1.3.3