【龙网转发】【中国2023万众期待超票房必看】【三大队】【WebDL-2160p.MKV】【国语】 - 龙网BT发布页 - 梦幻天堂·龙网专属BT发布页
资源名称: 【龙网转发】【中国2023万众期待超票房必看】【三大队】【WebDL-2160p.MKV】【国语】 [参与讨论]
发布者: 由 lwgod 发布于2024/03/30 16:50
发布联盟:
资源介绍:
海报
 
Image
 
Image
 
译  名 三大队/请转告局长,三大队任务完成了
片  名 Endless Journey
年  代 2023
国  家 中国
类  别 剧情/犯罪
语  言 汉语普通话
字  幕 中英硬字幕
评  分 7.6/10 from 422,159 users
文件大小 3.29 GB
片  长 132 Min
导  演 戴墨 Mo Dai
主  演 张译 Yi Zhang
     李晨 Chen Li
     魏晨 Vision Wei
     曹炳琨 Bingkun Cao
     王骁 Xiao Wang
     张子贤 Zixian Zhang
     杨新鸣 Xinming Yang
     陈创 Chuang Chen
     黄璐 Lu Huang
     艾丽娅 Liya Ai
     高叶 Ye Gao
 
简介
 
  刑侦大队队长程兵(张译 饰)带领的三大队在办理一起恶性案件的过程中导致嫌犯之一意外死亡,被判入狱。出狱后依然坚持以普通人身份追踪在逃嫌犯。
 
  影片根据真实事件改编,原载于“网易人间工作室”作者深蓝的《请转告局长,三大队任务完成了》。
 
Video
Format                         : HEVC
Format/Info                    : High Efficiency Video Coding
Format profile                 : Main@L5@Main
Codec ID                       : V_MPEGH/ISO/HEVC
Duration                       : 2 h 12 min
Bit rate                       : 3 287 kb/s
Width                          : 3 840 pixels
Height                         : 2 080 pixels
Display aspect ratio           : 1.85:1
Frame rate mode                : Constant
Frame rate                     : 25.000 FPS
Color space                    : YUV
Chroma subsampling             : 4:2:0
Bit depth                      : 8 bits
Bits/(Pixel*Frame)             : 0.016
Stream size                    : 3.05 GiB (93%)
 
Audio
Format                         : E-AC-3
Format/Info                    : Enhanced AC-3
Commercial name                : Dolby Digital Plus
Codec ID                       : A_EAC3
Duration                       : 2 h 12 min
Bit rate mode                  : Constant
Bit rate                       : 256 kb/s
Channel(s)                     : 6 channels
Channel layout                 : L R C LFE Ls Rs
Sampling rate                  : 48.0 kHz
Frame rate                     : 31.250 FPS (1536 SPF)
Compression mode               : Lossy
Stream size                    : 244 MiB (7%)
Service kind                   : Complete Main
 
截图
 
Image
下载资源: Download 开始下载
文件总大小: 3.3GB (种子:2,下载:4,完成:171)    
包含文件: URL 梦幻天堂·龙网(www.LWgod.org).三大队.电影版/本片海报、简介、截图等双击这里进入发布地址查看.url (198Bytes)
URL 梦幻天堂·龙网(www.LWgod.org).三大队.电影版/梦幻天堂·龙网(www.LWgod.org) 质量第一 品质保证.url (176Bytes)
UNKNOWN 梦幻天堂·龙网(www.LWgod.org).三大队.电影版/梦幻天堂·龙网(www.LWgod.org) 超多爆爽资源下载目录.rtf (2.1KB)
MKV 梦幻天堂·龙网(www.LWgod.org).三大队.电影版/梦幻天堂·龙网(www.LWgod.org).三大队.电影版.mkv (3.3GB)
UNKNOWN 梦幻天堂·龙网(www.LWgod.org).三大队.电影版/梦幻天堂·龙网最新网址 www.LWgod.org 请重新收藏.rtf (890Bytes)
Powered by BTMaster.cn Version:1.3.3