【龙网转发】【美国2023末世悬疑惊悚大片】【断网假期】【WebDL-1080p.MKV】【中字】 - 龙网BT发布页 - 梦幻天堂·龙网专属BT发布页
资源名称: 【龙网转发】【美国2023末世悬疑惊悚大片】【断网假期】【WebDL-1080p.MKV】【中字】 [参与讨论]
发布者: 由 lwgod 发布于2023/12/27 16:53
发布联盟:
资源介绍:
海报
 
Image
 
Image
 
译  名 断网假期/断讯/抛开世界/远离世界/断网假日
片  名 Leave the World Behind
年  代 2023
国  家 美国
类  别 剧情/悬疑/惊悚
语  言 英语
字  幕 中简/中繁/英文
评  分 6.0/10 from 17,581 users
文件大小 5.63 GB
片  长 140 Min
导  演 山姆·艾斯梅尔 Sam Esmail
主  演 朱莉娅·罗伯茨 Julia Roberts
     伊桑·霍克 Ethan Hawke
     凯文·贝肯 Kevin Bacon
     马赫沙拉·阿里 Mahershala Ali
     米哈拉·赫罗德 Myha'la Herrold
     瓦妮莎·阿斯皮利亚加 Vanessa Aspillaga
     法拉·麦肯齐 Farrah Mackenzie
     查理·埃文斯 Charlie Evans
     乔什·德伦宁 Josh Drennen
     艾瑞卡·赵 Erica Cho
     麦迪逊·杰西卡·贝内特 Madison Jessica Bennett
 
简介
 
  阿曼达(朱莉娅·罗伯茨 饰)和她的丈夫克莱(伊桑·霍克 饰)是一对幸福美满的夫妻,阳光明媚的日子里,阿曼达一家四口前往长岛享受美好假期。未曾想意外突然降临,一艘万吨邮轮毫无征兆冲上沙滩。惊恐万分的一家人回到他们租住的别墅,这时发现网络却断掉,迟迟未曾恢复。夜幕降临,别墅的主人乔治(马赫沙拉·阿里 饰)和女儿罗丝(米哈拉·赫罗德 饰)不约而至,从对方口中得知,城里的网络却不中断,他不得已才返回住处。半信半疑的阿曼达从电视新闻中得知,整个城市遭到了莫名攻击,网络全面中断。
 
  次日醒来,情况依旧没有好转,而这个世界仿佛变得万分陌生,无比疯狂……
 
Video
Format                         : AVC
Format/Info                    : Advanced Video Codec
Format profile                 : Main@L4
Format settings                : CABAC / 3 Ref Frames
Format settings, CABAC         : Yes
Format settings, Reference fra : 3 frames
Codec ID                       : V_MPEG4/ISO/AVC
Duration                       : 2 h 21 min
Bit rate mode                  : Variable
Bit rate                       : 5 000 kb/s
Maximum bit rate               : 7 500 kb/s
Width                          : 1 920 pixels
Height                         : 1 080 pixels
Display aspect ratio           : 16:9
Frame rate mode                : Constant
Frame rate                     : 24.000 FPS
Color space                    : YUV
Chroma subsampling             : 4:2:0
Bit depth                      : 8 bits
Scan type                      : Progressive
Bits/(Pixel*Frame)             : 0.100
Stream size                    : 4.87 GiB (86%)
 
Audio
Format                         : E-AC-3 JOC
Format/Info                    : Enhanced AC-3 with Joint Object Coding
Commercial name                : Dolby Digital Plus with Dolby Atmos
Codec ID                       : A_EAC3
Duration                       : 2 h 19 min
Bit rate mode                  : Constant
Bit rate                       : 768 kb/s
Channel(s)                     : 6 channels
Channel layout                 : L R C LFE Ls Rs
Sampling rate                  : 48.0 kHz
Frame rate                     : 31.250 FPS (1536 SPF)
Bit depth                      : 32 bits
Compression mode               : Lossy
Stream size                    : 769 MiB (13%)
Language                       : English
Service kind                   : Complete Main
 
截图
 
Image
下载资源: Download 开始下载
文件总大小: 5.6GB (种子:5,下载:1,完成:213)    
包含文件: URL 梦幻天堂·龙网(www.LWgod.org).断网假期.断讯/本片海报、简介、截图等双击这里进入发布地址查看.url (198Bytes)
URL 梦幻天堂·龙网(www.LWgod.org).断网假期.断讯/梦幻天堂·龙网(www.LWgod.org) 质量第一 品质保证.url (176Bytes)
UNKNOWN 梦幻天堂·龙网(www.LWgod.org).断网假期.断讯/梦幻天堂·龙网(www.LWgod.org) 超多爆爽资源下载目录.rtf (2.1KB)
MKV 梦幻天堂·龙网(www.LWgod.org).断网假期.断讯/梦幻天堂·龙网(www.LWgod.org).断网假期.断讯.mkv (5.6GB)
UNKNOWN 梦幻天堂·龙网(www.LWgod.org).断网假期.断讯/梦幻天堂·龙网最新网址 www.LWgod.org 请重新收藏.rtf (890Bytes)
UNKNOWN 梦幻天堂·龙网(www.LWgod.org).断网假期.断讯/龙网种子即将停止外转,下载龙网资源请至龙网原创区.rtf (807Bytes)
Powered by BTMaster.cn Version:1.3.3