【龙网转发】【中2023反杀犯罪悬疑大片】【拯救嫌疑人】【WebDL-2160p.MKV】【国语】 - 龙网BT发布页 - 梦幻天堂·龙网专属BT发布页
资源名称: 【龙网转发】【中2023反杀犯罪悬疑大片】【拯救嫌疑人】【WebDL-2160p.MKV】【国语】 [参与讨论]
发布者: 由 lwgod 发布于2023/12/22 17:22
发布联盟:
资源介绍:
海报
 
Image
 
Image
 
译  名 拯救嫌疑人/中国版七天
片  名 Last Suspect
年  代 2023
国  家 中国
类  别 犯罪/悬疑/剧情
语  言 汉语普通话
字  幕 中英硬字幕
评  分 6.2/10 from 74,427 users
文件大小 4.20 GB
片  长 119 Min
导  演 张末 Mo Zhang
主  演 张小斐 Xiaofei Zhang
     李鸿其 Hong-Chi Lee
     惠英红 Kara Wai Ying Hung
     王子异 Boogie Wang
     洪浚嘉 Junjia Hong
     尹子维 Terence Yin
     包上恩 Shangen Bao
     王弋萱 Xuanxuan
     汤镇业 Ken Tong
     刘欢 Huan Liu
     来喜 Laixi
 
简介
 
  华人金牌女律师陈智琪(张小斐 饰)在女儿被绑架后,接到神秘电话要求她在五天之内为一位死刑犯做无罪辩护,否则撕票!被逼无奈下陈智琪联手警察金志雄(李鸿其 饰)展开调查,在搜寻线索的过程中,她为死刑犯辩护的行为受到了死者家属林淑娥(惠英红 饰)的质疑。这场事关女儿生死的辩护,陈智琪绝不能输!然而随着案情深入她发现自己被卷入另一场阴谋之中……
 
Video
Format                         : HEVC
Format/Info                    : High Efficiency Video Coding
Format profile                 : Main 10 @ L5.1 @ Main
Codec ID                       : V_MPEGH/ISO/HEVC
Duration                       : 1 h 59 min
Bit rate                       : 4 782 kb/s
Width                          : 3 840 pixels
Height                         : 1 608 pixels
Display aspect ratio           : 2.40:1
Frame rate mode                : Constant
Frame rate                     : 60.000 FPS
Color space                    : YUV
Chroma subsampling             : 4:2:0
Bit depth                      : 10 bits
Bits/(Pixel*Frame)             : 0.013
Stream size                    : 3.99 GiB (95%)
Color range                    : Limited
Color primaries                : BT.709
Transfer characteristics       : BT.709
Matrix coefficients            : BT.709
 
Audio
Format                         : E-AC-3
Format/Info                    : Enhanced AC-3
Commercial name                : Dolby Digital Plus
Codec ID                       : A_EAC3
Duration                       : 1 h 59 min
Bit rate mode                  : Constant
Bit rate                       : 256 kb/s
Channel(s)                     : 6 channels
Channel layout                 : L R C LFE Ls Rs
Sampling rate                  : 48.0 kHz
Frame rate                     : 31.250 FPS (1536 SPF)
Compression mode               : Lossy
Stream size                    : 219 MiB (5%)
Service kind                   : Complete Main
 
截图
 
Image
下载资源: Download 开始下载
文件总大小: 4.2GB (种子:1,下载:1,完成:205)    
包含文件: URL 梦幻天堂·龙网(www.LWgod.org).拯救嫌疑人.中国版七天/本片海报、简介、截图等双击这里进入发布地址查看.url (198Bytes)
URL 梦幻天堂·龙网(www.LWgod.org).拯救嫌疑人.中国版七天/梦幻天堂·龙网(www.LWgod.org) 质量第一 品质保证.url (176Bytes)
UNKNOWN 梦幻天堂·龙网(www.LWgod.org).拯救嫌疑人.中国版七天/梦幻天堂·龙网(www.LWgod.org) 超多爆爽资源下载目录.rtf (2.1KB)
MKV 梦幻天堂·龙网(www.LWgod.org).拯救嫌疑人.中国版七天/梦幻天堂·龙网(www.LWgod.org).拯救嫌疑人.中国版七天.mkv (4.2GB)
UNKNOWN 梦幻天堂·龙网(www.LWgod.org).拯救嫌疑人.中国版七天/梦幻天堂·龙网最新网址 www.LWgod.org 请重新收藏.rtf (890Bytes)
UNKNOWN 梦幻天堂·龙网(www.LWgod.org).拯救嫌疑人.中国版七天/龙网种子即将停止外转,下载龙网资源请至龙网原创区.rtf (807Bytes)
Powered by BTMaster.cn Version:1.3.3