【龙网转发】【中2023票房高分犯罪力作】【河边的错误】【WebDL-2160p.MKV】【国语】 - 龙网BT发布页 - 梦幻天堂·龙网专属BT发布页
资源名称: 【龙网转发】【中2023票房高分犯罪力作】【河边的错误】【WebDL-2160p.MKV】【国语】 [参与讨论]
发布者: 由 lwgod 发布于2023/12/07 14:42
发布联盟:
资源介绍:
海报
 
Image
 
Image
 
译  名 河边的错误/江东喜事
片  名 Only the River Flows
年  代 2023
国  家 中国
类  别 剧情/犯罪
语  言 汉语普通话
字  幕 中文硬字幕
评  分 7.5/10 from 237,766 users
文件大小 3.73 GB
片  长 102 Min
导  演 魏书钧 Shujun Wei
主  演 朱一龙 Yilong Zhu
     曾美慧孜 Meihuizi Zeng
     侯天来 Tianlai Hou
     佟林楷 Linkai Tong
     康春雷 Chunlei Kang
     王健宇 Kira Wang
     莫西子诗 Chunlin Mo
     白沙 Baisha
     曹阳 Yang Cao
     周庆昀 Qingyun Zhou
     曾淇 Qi Zeng
 
简介
 
  影片改编自余华同名先锋代表作,看似是马哲(朱一龙 饰)在找寻凶案的真相,但故事没有答案,因为命运的看法比我们更准确……
 
  该片入围第76届戛纳电影节“一种关注”官方单元。
 
Video
Format                         : HEVC
Format/Info                    : High Efficiency Video Coding
Format profile                 : Main @ L5.1 @ Main
Codec ID                       : V_MPEGH/ISO/HEVC
Duration                       : 1 h 41 min
Bit rate                       : 5 060 kb/s
Width                          : 3 840 pixels
Height                         : 2 072 pixels
Display aspect ratio           : 1.85:1
Frame rate mode                : Constant
Frame rate                     : 60.000 FPS
Color space                    : YUV
Chroma subsampling             : 4:2:0
Bit depth                      : 8 bits
Bits/(Pixel*Frame)             : 0.011
Stream size                    : 3.60 GiB (96%)
 
Audio
Format                         : AAC LC
Format/Info                    : Advanced Audio Codec Low Complexity
Codec ID                       : A_AAC-2
Duration                       : 1 h 41 min
Bit rate                       : 192 kb/s
Channel(s)                     : 2 channels
Channel layout                 : L R
Sampling rate                  : 44.1 kHz
Frame rate                     : 43.066 FPS (1024 SPF)
Compression mode               : Lossy
Stream size                    : 138 MiB (4%)
 
截图
 
Image
下载资源: Download 开始下载
文件总大小: 3.7GB (种子:4,下载:4,完成:256)    
包含文件: URL 梦幻天堂·龙网(www.LWgod.org).河边的错误.江东喜事/本片海报、简介、截图等双击这里进入发布地址查看.url (198Bytes)
URL 梦幻天堂·龙网(www.LWgod.org).河边的错误.江东喜事/梦幻天堂·龙网(www.LWgod.org) 质量第一 品质保证.url (176Bytes)
UNKNOWN 梦幻天堂·龙网(www.LWgod.org).河边的错误.江东喜事/梦幻天堂·龙网(www.LWgod.org) 超多爆爽资源下载目录.rtf (2.1KB)
MKV 梦幻天堂·龙网(www.LWgod.org).河边的错误.江东喜事/梦幻天堂·龙网(www.LWgod.org).河边的错误.江东喜事.mkv (3.7GB)
UNKNOWN 梦幻天堂·龙网(www.LWgod.org).河边的错误.江东喜事/梦幻天堂·龙网最新网址 www.LWgod.org 请重新收藏.rtf (890Bytes)
UNKNOWN 梦幻天堂·龙网(www.LWgod.org).河边的错误.江东喜事/龙网种子即将停止外转,下载龙网资源请至龙网原创区.rtf (807Bytes)
Powered by BTMaster.cn Version:1.3.3