【龙网转发】【中2023超高分必看】【漫长的季节.全12集】【WebDL-2160p.MKV】【国语】 - 龙网BT发布页 - 梦幻天堂·龙网专属BT发布页
资源名称: 【龙网转发】【中2023超高分必看】【漫长的季节.全12集】【WebDL-2160p.MKV】【国语】 [参与讨论]
发布者: 由 lwgod 发布于2023/12/01 15:06
发布联盟:
资源介绍:
2023最强热剧!强烈推荐!人人必看!
 
海报
 
Image
 
Image
 
译  名 漫长的季节/凛冬之刃
片  名 The Long Season
年  代 2023
国  家 中国
类  别 剧情/家庭/犯罪
语  言 汉语普通话
字  幕 中文硬字幕
评  分 9.4/10 from 879,223 users
文件大小 6.23 GB
单集片长 60 Min
集  数 12
导  演 辛爽 Shuang Xin
主  演 范伟 Wei Fan
     秦昊 Hao Qin
     陈明昊 Minghao Chen
     李庚希 Gengxi Li
     刘奕铁 Yitie Liu
     蒋奇明 Qiming Jiang
     刘琳 Lin Liu
     史彭元 Pengyuan Shi
     侯岩松 Yansong Hou
     林晓杰 Diana Lin
     王佳佳 Jiajia Wang
 
简介
 
  20世纪90年代,东北小镇桦林,意外出现的碎尸块引起轰动。炼钢厂工人刘响(范伟 饰)一辈子勤勤恳恳,坚守原则,却面临着首批下岗的残酷现实。为了能立功留在厂里,他积极配合警方的调查,与此同时则忽略了儿子王阳(刘奕铁 饰)的反常变化。高考落榜的王阳此前喜欢上了美丽清纯的女大学生沈墨(李庚希 饰),他的赤诚与才情慢慢开启女孩的心扉。沈墨来自一个畸形的原生家庭,为了生计她在某家歌舞厅弹琴打工,却无法抵抗命运的嘲弄和戕害。经警方初步推断,碎尸案受害者可能正与失踪的沈墨以及一名港商有关。
 
  寒冷的北方,阴云密布。绝望的人心,也曾在某一时刻被温暖的光芒短暂照拂……
 
Video
Format                         : HEVC
Format/Info                    : High Efficiency Video Coding
Format profile                 : Main@L5@Main
Codec ID                       : V_MPEGH/ISO/HEVC
Duration                       : 1 h 12 min
Bit rate                       : 1 256 kb/s
Width                          : 3 840 pixels
Height                         : 1 608 pixels
Display aspect ratio           : 2.40:1
Frame rate mode                : Constant
Frame rate                     : 25.000 FPS
Color space                    : YUV
Chroma subsampling             : 4:2:0
Bit depth                      : 8 bits
Bits/(Pixel*Frame)             : 0.008
Stream size                    : 650 MiB (91%)
 
Audio
Format                         : AAC LC
Format/Info                    : Advanced Audio Codec Low Complexity
Codec ID                       : A_AAC-2
Duration                       : 1 h 12 min
Bit rate                       : 125 kb/s
Channel(s)                     : 2 channels
Channel layout                 : L R
Sampling rate                  : 48.0 kHz
Frame rate                     : 46.875 FPS (1024 SPF)
Compression mode               : Lossy
Delay relative to video        : -42 ms
Stream size                    : 64.9 MiB (9%)
 
截图
 
Image
下载资源: Download 开始下载
文件总大小: 6.2GB (种子:2,下载:1,完成:211)    
包含文件: URL 梦幻天堂·龙网(www.LWgod.org).漫长的季节.凛冬之刃.全12集/本片海报、简介、截图等双击这里进入发布地址查看.url (198Bytes)
URL 梦幻天堂·龙网(www.LWgod.org).漫长的季节.凛冬之刃.全12集/梦幻天堂·龙网(www.LWgod.org) 质量第一 品质保证.url (176Bytes)
UNKNOWN 梦幻天堂·龙网(www.LWgod.org).漫长的季节.凛冬之刃.全12集/梦幻天堂·龙网(www.LWgod.org) 超多爆爽资源下载目录.rtf (2.1KB)
MKV 梦幻天堂·龙网(www.LWgod.org).漫长的季节.凛冬之刃.全12集/梦幻天堂·龙网(www.LWgod.org).漫长的季节.凛冬之刃.第01集.mkv (715.7MB)
MKV 梦幻天堂·龙网(www.LWgod.org).漫长的季节.凛冬之刃.全12集/梦幻天堂·龙网(www.LWgod.org).漫长的季节.凛冬之刃.第02集.mkv (444.1MB)
MKV 梦幻天堂·龙网(www.LWgod.org).漫长的季节.凛冬之刃.全12集/梦幻天堂·龙网(www.LWgod.org).漫长的季节.凛冬之刃.第03集.mkv (441.7MB)
MKV 梦幻天堂·龙网(www.LWgod.org).漫长的季节.凛冬之刃.全12集/梦幻天堂·龙网(www.LWgod.org).漫长的季节.凛冬之刃.第04集.mkv (480.5MB)
MKV 梦幻天堂·龙网(www.LWgod.org).漫长的季节.凛冬之刃.全12集/梦幻天堂·龙网(www.LWgod.org).漫长的季节.凛冬之刃.第05集.mkv (474.7MB)
MKV 梦幻天堂·龙网(www.LWgod.org).漫长的季节.凛冬之刃.全12集/梦幻天堂·龙网(www.LWgod.org).漫长的季节.凛冬之刃.第06集.mkv (465.1MB)
MKV 梦幻天堂·龙网(www.LWgod.org).漫长的季节.凛冬之刃.全12集/梦幻天堂·龙网(www.LWgod.org).漫长的季节.凛冬之刃.第07集.mkv (553.3MB)
MKV 梦幻天堂·龙网(www.LWgod.org).漫长的季节.凛冬之刃.全12集/梦幻天堂·龙网(www.LWgod.org).漫长的季节.凛冬之刃.第08集.mkv (434.6MB)
MKV 梦幻天堂·龙网(www.LWgod.org).漫长的季节.凛冬之刃.全12集/梦幻天堂·龙网(www.LWgod.org).漫长的季节.凛冬之刃.第09集.mkv (465.5MB)
MKV 梦幻天堂·龙网(www.LWgod.org).漫长的季节.凛冬之刃.全12集/梦幻天堂·龙网(www.LWgod.org).漫长的季节.凛冬之刃.第10集.mkv (294.1MB)
MKV 梦幻天堂·龙网(www.LWgod.org).漫长的季节.凛冬之刃.全12集/梦幻天堂·龙网(www.LWgod.org).漫长的季节.凛冬之刃.第11集.mkv (888.9MB)
MKV 梦幻天堂·龙网(www.LWgod.org).漫长的季节.凛冬之刃.全12集/梦幻天堂·龙网(www.LWgod.org).漫长的季节.凛冬之刃.第12集.mkv (728.1MB)
UNKNOWN 梦幻天堂·龙网(www.LWgod.org).漫长的季节.凛冬之刃.全12集/梦幻天堂·龙网最新网址 www.LWgod.org 请重新收藏.rtf (890Bytes)
UNKNOWN 梦幻天堂·龙网(www.LWgod.org).漫长的季节.凛冬之刃.全12集/龙网种子即将停止外转,下载龙网资源请至龙网原创区.rtf (807Bytes)
Powered by BTMaster.cn Version:1.3.3