【龙网转发】【中2023票房战争巨制】【志愿军:雄兵出击】【WebDL-2160p.MKV】【国语】 - 龙网BT发布页 - 梦幻天堂·龙网专属BT发布页
资源名称: 【龙网转发】【中2023票房战争巨制】【志愿军:雄兵出击】【WebDL-2160p.MKV】【国语】 [参与讨论]
发布者: 由 lwgod 发布于2023/12/02 15:27
发布联盟:
资源介绍:
海报
 
Image
 
Image
 
译  名 志愿军:雄兵出击/志愿军三部曲1/伟大的战争·抗美援朝/伟大的胜利/战与祀
片  名 The Volunteers: To the War
年  代 2023
国  家 中国
类  别 战争/历史/剧情
语  言 汉语普通话/英语/韩语
字  幕 中英硬字幕
评  分 7.0/10 from 92,402 users
文件大小 6.17 GB
片  长 140 Min
导  演 陈凯歌 Kaige Chen
主  演 唐国强 Guoqiang Tang
     王砚辉 Yanhui Wang
     刘劲 Jin Liu
     辛柏青 Baiqing Xin
     张颂文 Songwen Zhang
     黄晓明 Xiaoming Huang
     章子怡 Ziyi Zhang
     朱亚文 Yawen Zhu
     张子枫 Zifeng Zhang
     魏大勋 Daxun Wei
     肖央 Yang Xiao
 
简介
 
  为纪念抗美援朝战争胜利70周年,《志愿军》三部曲将全景式、多维度立体展现这场新中国的立国之战。电影《志愿军:雄兵出击》为该系列首部。
  1949年建国初期,新中国面临“内忧外患”局面。朝鲜内战爆发以来,美军屡在中朝边境挑衅,平民惨遭轰炸。为了维护来之不易的和平、为了世代长久的安稳,1950年10月,中国人民志愿军入朝,“抗美援朝”战争拉开帷幕。
  这是一场“举国之战”——
  朝鲜战场,即使军备实力对比悬殊,我军却用壮烈牺牲换回节节胜利;
  外交舞台,中华人民共和国代表团首度亮相联合国,中国新声赢得国际敬畏。
  新中国,寸土不让扬国威;新青年,意气风发保家国。
 
Video
Format                         : HEVC
Format/Info                    : High Efficiency Video Coding
Format profile                 : Main@L5@Main
Codec ID                       : V_MPEGH/ISO/HEVC
Duration                       : 2 h 19 min
Bit rate                       : 6 128 kb/s
Width                          : 3 840 pixels
Height                         : 1 608 pixels
Display aspect ratio           : 2.40:1
Frame rate mode                : Constant
Frame rate                     : 24.000 FPS
Color space                    : YUV
Chroma subsampling             : 4:2:0
Bit depth                      : 8 bits
Bits/(Pixel*Frame)             : 0.041
Stream size                    : 5.99 GiB (97%)
 
Audio
Format                         : AAC LC
Format/Info                    : Advanced Audio Codec Low Complexity
Codec ID                       : A_AAC-2
Duration                       : 2 h 19 min
Bit rate                       : 192 kb/s
Channel(s)                     : 2 channels
Channel layout                 : L R
Sampling rate                  : 44.1 kHz
Frame rate                     : 43.066 FPS (1024 SPF)
Compression mode               : Lossy
Stream size                    : 190 MiB (3%)
 
截图
 
Image
下载资源: Download 开始下载
文件总大小: 6.2GB (种子:4,下载:1,完成:396)    
包含文件: URL 梦幻天堂·龙网(www.LWgod.org).志愿军:雄兵出击.志愿军三部曲1/本片海报、简介、截图等双击这里进入发布地址查看.url (198Bytes)
URL 梦幻天堂·龙网(www.LWgod.org).志愿军:雄兵出击.志愿军三部曲1/梦幻天堂·龙网(www.LWgod.org) 质量第一 品质保证.url (176Bytes)
UNKNOWN 梦幻天堂·龙网(www.LWgod.org).志愿军:雄兵出击.志愿军三部曲1/梦幻天堂·龙网(www.LWgod.org) 超多爆爽资源下载目录.rtf (2.1KB)
MKV 梦幻天堂·龙网(www.LWgod.org).志愿军:雄兵出击.志愿军三部曲1/梦幻天堂·龙网(www.LWgod.org).志愿军:雄兵出击.志愿军三部曲1.mkv (6.2GB)
UNKNOWN 梦幻天堂·龙网(www.LWgod.org).志愿军:雄兵出击.志愿军三部曲1/梦幻天堂·龙网最新网址 www.LWgod.org 请重新收藏.rtf (890Bytes)
UNKNOWN 梦幻天堂·龙网(www.LWgod.org).志愿军:雄兵出击.志愿军三部曲1/龙网种子即将停止外转,下载龙网资源请至龙网原创区.rtf (807Bytes)
Powered by BTMaster.cn Version:1.3.3