【龙网转发】【中国2021万众期待高分神作】【雄狮少年】【WebDL-2160p.MKV】【双语】 - 龙网BT发布页 - 梦幻天堂·龙网专属BT发布页
资源名称: 【龙网转发】【中国2021万众期待高分神作】【雄狮少年】【WebDL-2160p.MKV】【双语】 [参与讨论]
发布者: 由 lwgod 发布于2022/06/26 15:22
发布联盟:
资源介绍:
海报
 
Image
 
Image
 
译  名 雄狮少年
片  名 I Am What I Am
年  代 2021
国  家 中国
类  别 动画/喜剧/剧情
语  言 国语粤语双音轨
字  幕 中文硬字幕
评  分 8.3/10 from 418,985 users
文件大小 7.40 GB
片  长 104 Min
导  演 孙海鹏 Haipeng Sun
主  演 大昕 Xin Li
     大雄 Xiong Da
     郭皓 Hao Guo
     李盟 Meng Li
     李佳思 Jiasi Li
     蔡壮壮 Zhuangzhuang Cai
     马语非 Nuh-Ma Yufei
     熊陈捷 Chenjie Xiong
     巴赫 He Ba
     付博文 Tom Fu
     秋木 Mu Qiu
 
简介
 
  阿娟(大昕 配音)的父母在大城市打工养家,他留守在故乡,因为孱弱的体格和怯懦的性格常常遭到旁人的欺负。一次偶然中,阿娟邂逅了和自己同名的舞狮少女(秋木 配音),少女飒爽的英姿和如雷贯耳的话语激起了阿娟对舞狮这项传动活动的兴趣,他打算参加舞狮大赛来证明自己的能力,很快,阿娟的好友阿猫(大雄 配音)和阿狗(郭浩 配音)也加入了这个计划之中。
 
  可是,舞狮哪有这么容易学,为了拜师,阿娟一行人找到了开鱼铺的咸鱼强(李盟 配音)。咸鱼强虽然现在活得窝囊,但曾经却是舞狮比赛的冠军,三个少年蓬勃的朝气和真挚的眼神打动了咸鱼强,重新唤醒了他对于舞狮的热爱。
 
Video
Format                         : HEVC
Format/Info                    : High Efficiency Video Coding
Format profile                 : Main@L5@Main
Codec ID                       : V_MPEGH/ISO/HEVC
Duration                       : 1 h 44 min
Bit rate                       : 9 423 kb/s
Width                          : 3 840 pixels
Height                         : 1 608 pixels
Display aspect ratio           : 2.40:1
Frame rate mode                : Constant
Frame rate                     : 24.000 FPS
Color space                    : YUV
Chroma subsampling             : 4:2:0
Bit depth                      : 8 bits
Bits/(Pixel*Frame)             : 0.064
Stream size                    : 6.85 GiB (92%)
 
Audio #1
Format                         : E-AC-3
Format/Info                    : Enhanced AC-3
Commercial name                : Dolby Digital Plus
Codec ID                       : A_EAC3
Duration                       : 1 h 44 min
Bit rate mode                  : Constant
Bit rate                       : 384 kb/s
Channel(s)                     : 6 channels
Channel layout                 : L R C LFE Ls Rs
Sampling rate                  : 48.0 kHz
Frame rate                     : 31.250 FPS (1536 SPF)
Compression mode               : Lossy
Stream size                    : 286 MiB (4%)
Title                          : 国语音轨
Language                       : Chinese
Service kind                   : Complete Main
 
Audio #2
Format                         : E-AC-3
Format/Info                    : Enhanced AC-3
Commercial name                : Dolby Digital Plus
Codec ID                       : A_EAC3
Duration                       : 1 h 44 min
Bit rate mode                  : Constant
Bit rate                       : 384 kb/s
Channel(s)                     : 6 channels
Channel layout                 : L R C LFE Ls Rs
Sampling rate                  : 48.0 kHz
Frame rate                     : 31.250 FPS (1536 SPF)
Compression mode               : Lossy
Stream size                    : 286 MiB (4%)
Title                          : 粤语音轨
Language                       : Chinese
Service kind                   : Complete Main
截图
 
Image
下载资源: Download 开始下载
文件总大小: 7.4GB (种子:3,下载:0,完成:570)    
包含文件: URL 梦幻天堂·龙网(www.LWgod.org).雄狮少年/本片海报、简介、截图等双击这里进入发布地址查看.url (198Bytes)
URL 梦幻天堂·龙网(www.LWgod.org).雄狮少年/梦幻天堂·龙网(www.LWgod.org) 质量第一 品质保证.url (176Bytes)
UNKNOWN 梦幻天堂·龙网(www.LWgod.org).雄狮少年/梦幻天堂·龙网(www.LWgod.org) 超多爆爽资源下载目录.rtf (2.1KB)
MKV 梦幻天堂·龙网(www.LWgod.org).雄狮少年/梦幻天堂·龙网(www.LWgod.org).雄狮少年.mkv (7.4GB)
UNKNOWN 梦幻天堂·龙网(www.LWgod.org).雄狮少年/梦幻天堂·龙网最新网址 www.LWgod.org 请重新收藏.rtf (890Bytes)
Powered by BTMaster.cn Version:1.3.3