【龙网转发】【胡歌2023最新高分剧情佳作】【不虚此行】【WebDL-2160p.MKV】【国语】 - 龙网BT发布页 - 梦幻天堂·龙网专属BT发布页
资源名称: 【龙网转发】【胡歌2023最新高分剧情佳作】【不虚此行】【WebDL-2160p.MKV】【国语】 [参与讨论]
发布者: 由 lwgod 发布于2023/11/23 13:43
发布联盟:
资源介绍:
海报
 
Image
 
Image
 
译  名 不虚此行/不虚此行。/倾听
片  名 All Ears
年  代 2023
国  家 中国
类  别 剧情
语  言 汉语普通话
字  幕 中英硬字幕
评  分 7.1/10 from 44,993 users
文件大小 9.77 GB
片  长 119 Min
导  演 刘伽茵 Jiayin Liu
主  演 胡歌 Ge Hu
     吴磊 Leo Wu
     齐溪 Xi Qi
     娜仁花 Renhua Na
     甘昀宸 Yunchen Gan
     黄磊 Lei Huang
     扈耀之 Yaozhi Hu
     白客 White. K
     孙淳 Chun Sun
     杨庆生 Qingsheng Yang
     龚蓓苾 Beibi Gong
 
简介
 
  人这一生怎样才算不虚此行?闻善(胡歌 饰)在平衡自己与世界的关系中寻找着答案。他是一个“掉队”的普通编剧,一次偶然的机会让他改以撰写悼词为生。在与各色普通人的相遇里,闻善慰藉他人、也获得了温暖,最终找到了自己的人生方向。
 
Video
Format                         : HEVC
Format/Info                    : High Efficiency Video Coding
Format profile                 : Main@L5@Main
Codec ID                       : V_MPEGH/ISO/HEVC
Duration                       : 1 h 59 min
Bit rate                       : 11.5 Mb/s
Width                          : 3 344 pixels
Height                         : 2 160 pixels
Display aspect ratio           : 3:2
Frame rate mode                : Constant
Frame rate                     : 24.000 FPS
Color space                    : YUV
Chroma subsampling             : 4:2:0
Bit depth                      : 8 bits
Bits/(Pixel*Frame)             : 0.066
Stream size                    : 9.56 GiB (98%)
 
Audio
Format                         : E-AC-3
Format/Info                    : Enhanced AC-3
Commercial name                : Dolby Digital Plus
Codec ID                       : A_EAC3
Duration                       : 1 h 59 min
Bit rate mode                  : Constant
Bit rate                       : 256 kb/s
Channel(s)                     : 6 channels
Channel layout                 : L R C LFE Ls Rs
Sampling rate                  : 48.0 kHz
Frame rate                     : 31.250 FPS (1536 SPF)
Compression mode               : Lossy
Stream size                    : 218 MiB (2%)
Language                       : Chinese
Service kind                   : Complete Main
 
截图
 
Image
下载资源: Download 开始下载
文件总大小: 9.8GB (种子:2,下载:5,完成:189)    
包含文件: URL 梦幻天堂·龙网(www.LWgod.org).不虚此行.倾听/本片海报、简介、截图等双击这里进入发布地址查看.url (198Bytes)
URL 梦幻天堂·龙网(www.LWgod.org).不虚此行.倾听/梦幻天堂·龙网(www.LWgod.org) 质量第一 品质保证.url (176Bytes)
UNKNOWN 梦幻天堂·龙网(www.LWgod.org).不虚此行.倾听/梦幻天堂·龙网(www.LWgod.org) 超多爆爽资源下载目录.rtf (2.1KB)
MKV 梦幻天堂·龙网(www.LWgod.org).不虚此行.倾听/梦幻天堂·龙网(www.LWgod.org).不虚此行.倾听.mkv (9.8GB)
UNKNOWN 梦幻天堂·龙网(www.LWgod.org).不虚此行.倾听/梦幻天堂·龙网最新网址 www.LWgod.org 请重新收藏.rtf (890Bytes)
UNKNOWN 梦幻天堂·龙网(www.LWgod.org).不虚此行.倾听/龙网种子即将停止外转,下载龙网资源请至龙网原创区.rtf (807Bytes)
Powered by BTMaster.cn Version:1.3.3