【龙网转发】【2021】【爱,死亡和机器人.第二季.全8集】【WebDL-1080p.MKV】【中字】 - 龙网BT发布页 - 梦幻天堂·龙网专属BT发布页
资源名称: 【龙网转发】【2021】【爱,死亡和机器人.第二季.全8集】【WebDL-1080p.MKV】【中字】 [参与讨论]
发布者: 由 lwgod 发布于2022/06/20 22:27
发布联盟:
资源介绍:
海报
 
Image
 
译  名 爱,死亡和机器人 第二季/爱 · 死 · 机械人(港)/爱 x 死 x 机器人(台)/爱、死亡 + 机器人/爱、死亡 & 机器人
片  名 Love, Death & Robots Season 2
年  代 2021
国  家 美国
类  别 动画/科幻/奇幻/恐怖/短片
语  言 英语
字  幕 中简/中繁/英文
评  分 6.8/10 from 186,679 users
文件大小 3.60 GB
单集片长 10 Min
集  数 8
导  演 蒂姆·米勒 Tim Miller
     肉食部门 Meat Dept
     罗伯特·瓦利 Robert Valley
     吕寅荣 Jennifer Yuh
     里昂·贝雷尔 Leon Berelle
     多米尼克·博伊丁 Dominique Boidin
     雷米·科季拉 Remi Kozyra
     马克西姆·卢埃尔 Maxime Luere
     西蒙·奥托 Simon Otto
     艾略特·迪尔 Elliot Dear
     亚历克斯·比蒂 Alex Beaty
主  演 诺兰·诺斯 Nolan North
     艾米丽·奥布莱恩 Emily O'Brien
     艾洛蒂·袁 Elodie Yung
     艾克·阿玛迪 Ike Amadi
     米歇尔·C·博尼拉 Michelle C. Bonilla
     诺希尔·达拉尔 Noshir Dalal
     安德鲁·霍克斯 Andrew Hawkes
     德博拉·卡尔多纳 Debra Cardona
     阿亚娜·哈威夫 Ayana Haviv
     史蒂文·佩西 Steven Pacey
     乔恩尼·赫恩 Jonnie Hurn
 
简介
 
  《爱,死亡和机器人》是一部动画短片合集,涵盖科幻、奇幻、恐怖和喜剧等题材。每集都采用大胆的叙事手法,故事好看易懂,令人印象深刻。由大卫·芬奇、蒂姆·米勒、珍妮弗·米勒和乔希·多宁担任监制,汇集了世界级的动画创作者和精彩的故事,定会为观众带来独特、震撼人心的观看体验。
 
Video
Format                         : AVC
Format/Info                    : Advanced Video Codec
Format profile                 : High@L4
Format settings                : CABAC / 4 Ref Frames
Format settings, CABAC         : Yes
Format settings, Reference fra : 4 frames
Codec ID                       : V_MPEG4/ISO/AVC
Duration                       : 12 min 35 s
Bit rate mode                  : Variable
Bit rate                       : 2 802 kb/s
Maximum bit rate               : 20.0 Mb/s
Width                          : 1 920 pixels
Height                         : 1 080 pixels
Display aspect ratio           : 16:9
Frame rate mode                : Constant
Frame rate                     : 24.000 FPS
Color space                    : YUV
Chroma subsampling             : 4:2:0
Bit depth                      : 8 bits
Scan type                      : Progressive
Bits/(Pixel*Frame)             : 0.056
Stream size                    : 252 MiB (75%)
 
Audio
Format                         : E-AC-3 JOC
Format/Info                    : Enhanced AC-3 with Joint Object Coding
Commercial name                : Dolby Digital Plus with Dolby Atmos
Codec ID                       : A_EAC3
Duration                       : 12 min 36 s
Bit rate mode                  : Constant
Bit rate                       : 768 kb/s
Channel(s)                     : 6 channels
Channel layout                 : L R C LFE Ls Rs
Sampling rate                  : 48.0 kHz
Frame rate                     : 31.250 FPS (1536 SPF)
Compression mode               : Lossy
Stream size                    : 69.3 MiB (21%)
Service kind                   : Complete Main
Complexity index               : 16
Number of dynamic objects      : 15
Bed channel count              : 1 channel
Bed channel configuration      : LFE
 
截图
 
Image
 
Image
下载资源: Download 开始下载
文件总大小: 3.6GB (种子:15,下载:27,完成:298)    
包含文件: URL 梦幻天堂·龙网(www.LWgod.org).爱,死亡和机器人.第二季.全8集/本片海报、简介、截图等双击这里进入发布地址查看.url (198Bytes)
URL 梦幻天堂·龙网(www.LWgod.org).爱,死亡和机器人.第二季.全8集/梦幻天堂·龙网(www.LWgod.org) 质量第一 品质保证.url (176Bytes)
UNKNOWN 梦幻天堂·龙网(www.LWgod.org).爱,死亡和机器人.第二季.全8集/梦幻天堂·龙网(www.LWgod.org) 超多爆爽资源下载目录.rtf (2.1KB)
MKV 梦幻天堂·龙网(www.LWgod.org).爱,死亡和机器人.第二季.全8集/梦幻天堂·龙网(www.LWgod.org).爱,死亡和机器人.第二季.第1集.mkv (334.3MB)
MKV 梦幻天堂·龙网(www.LWgod.org).爱,死亡和机器人.第二季.全8集/梦幻天堂·龙网(www.LWgod.org).爱,死亡和机器人.第二季.第2集.mkv (370.4MB)
MKV 梦幻天堂·龙网(www.LWgod.org).爱,死亡和机器人.第二季.全8集/梦幻天堂·龙网(www.LWgod.org).爱,死亡和机器人.第二季.第3集.mkv (797.6MB)
MKV 梦幻天堂·龙网(www.LWgod.org).爱,死亡和机器人.第二季.全8集/梦幻天堂·龙网(www.LWgod.org).爱,死亡和机器人.第二季.第4集.mkv (645.3MB)
MKV 梦幻天堂·龙网(www.LWgod.org).爱,死亡和机器人.第二季.全8集/梦幻天堂·龙网(www.LWgod.org).爱,死亡和机器人.第二季.第5集.mkv (220.8MB)
MKV 梦幻天堂·龙网(www.LWgod.org).爱,死亡和机器人.第二季.全8集/梦幻天堂·龙网(www.LWgod.org).爱,死亡和机器人.第二季.第6集.mkv (214.5MB)
MKV 梦幻天堂·龙网(www.LWgod.org).爱,死亡和机器人.第二季.全8集/梦幻天堂·龙网(www.LWgod.org).爱,死亡和机器人.第二季.第7集.mkv (432.6MB)
MKV 梦幻天堂·龙网(www.LWgod.org).爱,死亡和机器人.第二季.全8集/梦幻天堂·龙网(www.LWgod.org).爱,死亡和机器人.第二季.第8集.mkv (677.5MB)
UNKNOWN 梦幻天堂·龙网(www.LWgod.org).爱,死亡和机器人.第二季.全8集/梦幻天堂·龙网最新网址 www.LWgod.org 请重新收藏.rtf (890Bytes)
Powered by BTMaster.cn Version:1.3.3